Торрент файл
скачать торрент магнет ссылка Добавлен: 06 июл 2014, 23:47
Размер: 2.4 ГБ
Сидеров: 277
Личеров: 7
Автор

СообщениеДобавлено: 06 июл 2014, 23:47 

Не в сети
Супермодератор
Аватара пользователя
Дата регистрации:
06 июн 2014, 07:51
Спасибо: 577 / 0
Сообщения: 2002
Информация о фильме
Название: Под псевдонимом "Джек Стронг"
Оригинальное название: Jack Strong
Год выпуска: 2014
Жанр: Шпионский триллер
Выпущено: Польша, Scorpio Studio
Режиссер: Владислав Пасиковский
В ролях: Марчин Дорочиньский, Майя Осташевска, Патрик Уилсон, Дмитрий Белов, Дагмара Доминчик, Олег Масленников, Кшиштоф Печиньский, Мирослав Бака, Збигнев Замаховский, Кшиштоф Глёбиш, Ирэниуш Чоп

О фильме: 1968 год. Майор Рышард Куклинский готовит план военных учений стран-участниц Организации Варшавского договора. Он прекрасно понимает, что Советский Союз рассматривает возможность массированной атаки на Западную Европу и страны НАТО, которые, не имея достаточного количества обычных вооружений, будут вынуждены контратаковать с помощью ядерных ударов по его родной Польше, через которую и будут проходить силы первого и второго броска. Самосожжение философа Рышарда Сивца в знак протеста против вторжения в Чехословакию, жестокое подавление армией забастовок в Гданьске в декабре 1970 года с помощью тяжелых пулеметов - все это склоняет уже полковника Рышарда Куклинского использовать хорошие связи в советских и польских военных кругах и доступ к совершенно секретным документам "в мирных целях", добровольно предложив сотрудничество с Центральным разведывательным управлением США. Под псевдонимом "Джек Стронг" и кодовым именем "Чайка" Куклинский передает на Запад совершенно секретные документы о советском наступательном вооружении, системах ПВО и ПРО и планах ввести на территории Польши военное положение. С тех пор его жизнь находится под угрозой, дети презирают его за службу "красным", жена подозревает в супружеской измене, а внимание военной контрразведки и советского КГБ может привести к неверному шагу и провалу.



Файл
Качество: BDRip (AVC)
Видео: MPEG-4 AVC, 2250 Кбит/с, 1024x428, 24 кадр/с
Аудио: Польский - русский - английский - немецкий (AC3, 6 ch, 448 Кбит/с)
Размер: 2.40 ГБ
Продолжительность: 02:07:44
Перевод: Субтитры
Субтитры: Русские, английские, польские
Аудио1: Польский - русский - английский - немецкий (AC3, 6 ch, 448Кбит/с)
Исходник - Jack.Strong.2014.BDRemux.(1080p).ExKinoRay
Сохранены оригинальные чаптеры как на Blu-Ray.
----------------------------------------
Перевод польской, английской и немецкой речи - Субтитры (Naumanns/Арт-группа STOP!Genocide в Питере)
x264 [info]: frame I:1427 Avg QP:14.37 size: 74760
x264 [info]: frame P:37076 Avg QP:17.87 size: 25205
x264 [info]: frame B:145424 Avg QP:20.23 size: 7626
------------------------------------------------------
Общее
Уникальный идентификатор : 225537859904577708492681849291041646712 (0xA9AD03053707875D89E3F38C9693A878)
Полное имя : D:ЗагрузкиJack.Strong.2014.x264.BDRip.(AVC).ExKinoRay.mkv
Формат : Matroska
Версия формата : Version 2
Размер файла : 2,40 Гбайт
Продолжительность : 2 ч. 7 м.
Общий поток : 2694 Кбит/сек
Название фильма : Под псевдонимом "Джек Стронг".2014.Rip by: ollan
Дата кодирования : UTC 2014-07-06 14:32:03
Программа кодирования : mkvmerge v5.6.0 ('Kenya Kane') built on May 27 2012 16:44:04
Библиотека кодирования : libebml v1.2.3 + libmatroska v1.3.0

Видео
Идентификатор : 1
Формат : AVC
Формат/Информация : Advanced Video Codec
Профиль формата : High@L4.1
Параметр CABAC формата : Да
Параметр ReFrames формата : 9 кадров
Идентификатор кодека : V_MPEG4/ISO/AVC
Продолжительность : 2 ч. 7 м.
Битрейт : 2250 Кбит/сек
Ширина : 1024 пикселя
Высота : 428 пикселей
Соотношение сторон : 2,40:1
Режим частоты кадров : Постоянный
Частота кадров : 24,000 кадра/сек
Цветовое пространство : YUV
Субдискретизация насыщенности : 4:2:0
Битовая глубина : 8 бит
Тип развёртки : Прогрессивная
Бит/(Пиксели*Кадры) : 0.214
Размер потока : 1,96 Гбайт (81%)
Библиотека кодирования : x264 core 125 r2200 999b753
Настройки программы : cabac=1 / ref=9 / deblock=1:-3:-3 / analyse=0x3:0x133 / me=umh / subme=11 / psy=1 / psy_rd=1.00:0.10 / mixed_ref=1 / me_range=32 / chroma_me=1 / trellis=2 / 8x8dct=1 / cqm=0 / deadzone=21,11 / fast_pskip=0 / chroma_qp_offset=-3 / threads=12 / lookahead_threads=2 / sliced_threads=0 / nr=0 / decimate=0 / interlaced=0 / bluray_compat=0 / constrained_intra=0 / bframes=9 / b_pyramid=2 / b_adapt=2 / b_bias=0 / direct=3 / weightb=1 / open_gop=0 / weightp=2 / keyint=240 / keyint_min=23 / scenecut=40 / intra_refresh=0 / rc_lookahead=40 / rc=2pass / mbtree=1 / bitrate=2250 / ratetol=1.0 / qcomp=0.60 / qpmin=0 / qpmax=69 / qpstep=4 / cplxblur=20.0 / qblur=0.5 / ip_ratio=1.40 / aq=1:1.00
Default : Да
Forced : Нет

Аудио
Идентификатор : 2
Формат : AC-3
Формат/Информация : Audio Coding 3
Расширение режима : CM (complete main)
Параметр Endianness формата : Big
Идентификатор кодека : A_AC3
Продолжительность : 2 ч. 7 м.
Вид битрейта : Постоянный
Битрейт : 448 Кбит/сек
Каналы : 6 каналов
Расположение каналов : Front: L C R, Side: L R, LFE
Частота : 48,0 КГц
Битовая глубина : 16 бит
Метод сжатия : С потерями
Размер потока : 409 Мбайт (17%)
Заголовок : Польский, Русский, Английский, Немецкий
Default : Да
Forced : Нет

Текст #1
Идентификатор : 3
Формат : UTF-8
Идентификатор кодека : S_TEXT/UTF8
Идентификатор кодека/Информация : UTF-8 Plain Text
Язык : Russian
Default : Да
Forced : Нет

Текст #2
Идентификатор : 4
Формат : UTF-8
Идентификатор кодека : S_TEXT/UTF8
Идентификатор кодека/Информация : UTF-8 Plain Text
Язык : English
Default : Нет
Forced : Нет

Текст #3
Идентификатор : 5
Формат : UTF-8
Идентификатор кодека : S_TEXT/UTF8
Идентификатор кодека/Информация : UTF-8 Plain Text
Язык : Polish
Default : Нет
Forced : Нет

Меню
00:00:00.000 : en:00:00:00.000
00:05:37.708 : en:00:05:37.708
00:15:22.000 : en:00:15:22.000
00:23:44.917 : en:00:23:44.917
00:32:04.250 : en:00:32:04.250
00:41:12.083 : en:00:41:12.083
00:48:47.958 : en:00:48:47.958
00:57:43.083 : en:00:57:43.083
01:03:07.458 : en:01:03:07.458
01:10:29.958 : en:01:10:29.958
01:20:39.167 : en:01:20:39.167
01:27:39.250 : en:01:27:39.250
01:35:38.333 : en:01:35:38.333
01:44:30.000 : en:01:44:30.000
01:56:35.667 : en:01:56:35.667
02:00:26.292 : en:02:00:26.292





реклама партнёра


Вернуться к началу
 Профиль Отправить личное сообщение  
 
   Похожие торренты   Автор   Торрент   Размер 
В этой теме нет новых непрочитанных сообщений. Под псевдонимом "Джек Стронг" / Jack Strong (Владислав Пасиковский / Wladyslaw Pasikowski) [2014г., шпионский триллер, BDRip 720p] SUB

Alfredovich

5 | 3

7.06 ГБ

В этой теме нет новых непрочитанных сообщений. Под псевдонимом: Джек Стронг / Джек Стронг / Jack Strong [боевик, драма, криминал, детектив, биография, 2014] HDRip, Avo

salma3

269 | 6

1.37 ГБ

В этой теме нет новых непрочитанных сообщений. Джек Райан: Теория хаоса / Jack Ryan: Shadow Recruit [боевик, триллер, драма, 2014] BDRip-AVC, Dub+Sub [Лицензия]

salma3

272 | 25

1.46 ГБ

В этой теме нет новых непрочитанных сообщений. Джек Райан: Теория хаоса / Jack Ryan: Shadow Recruit [боевик, триллер, драма, 2014] BDRip-AVC, Dub+Sub [Лицензия]

Dracon

173 | 7

1.99 ГБ

В этой теме нет новых непрочитанных сообщений. Джек Райан: Теория хаоса / Jack Ryan: Shadow Recruit [боевик, триллер, драма, 2014] BDRip 720p, Dub+Sub [лицензия ]

Dracon

1210 | 69

5.31 ГБ

В этой теме нет новых непрочитанных сообщений. Опасный Джек / Ужас в больнице / Hazard Jack [ужасы, 2014] BDRip 720p, Avo

salma3

72 | 5

3.38 ГБ

В этой теме нет новых непрочитанных сообщений. Джек-попрыгунчик / Jumpin' Jack Flash [триллер, мелодрама, комедия, 1986] BDRip 720p, Mvo

salma3

18 | 2

6.79 ГБ


Начать новую тему Ответить на тему  [ 1 сообщение ] 




Для Мосгорсуда, Роскомнадзора и рекламодателей:: mosgorsud-torrent[собачка]yandex.ru