Торрент файл
скачать торрент магнет ссылка Добавлен: 06 июл 2014, 09:36
Размер: 2.46 ГБ
Сидеров: 728
Личеров: 11
Статус: (salma3)
Автор

СообщениеДобавлено: 06 июл 2014, 09:36 

Не в сети
Зам. Админа
Аватара пользователя
Дата регистрации:
02 дек 2010, 12:39
Спасибо: 12623 / 214
Сообщения: 28033
Год выхода: 2013
Жанр: драма, биография
Режиссер: Джонатан Теплицки



В ролях: Джереми Ирвин, Колин Фёрт, Николь Кидман, Хироюки Санада, Танрох Ишида, Стеллан Скарсгард, Сэм Рид, Том Хоббс, Акос Армонт

О ФИЛЬМЕ
История Эрика Ломакса. Во время Второй мировой войны этот британский офицер был схвачен японскими войсками, вследствие чего прошел все ужасы военных лагерей, где его пытали. В плену он вынужден был участвовать в строительстве железной дороги. После освобождения, лейтенанта Ломакса произвели в капитаны.
Десятилетия спустя долгое время мечтавший о возмездии военный решился на примирение, для чего встретился с одним из своих мучителей на мосту через реку Квай.



Страна: Австралия / Великобритания / Швейцария
Производство: Archer Street Productions, Lionsgate, Silver Reel
Продолжительность: 01:56:32
Перевод: Дублированный [Чистый звук]

Качество: BDRip 720p
Видео: 1280x534 (2.40:1) at 23.976 fps, AVC at 2000 kbps avg, 0.122 bit/pixel
Аудио 1: Русский / АС3, 2 ch, 384 Кбит/с / Студия "Пифагор"
Аудио 2: Английский / АС3, 6 ch, 640 Кбит/с / Original
Субтитры: Русские, Английские
Дополнительно: Сохранены оригинальные чаптеры как на Blu-Ray


x264 [info]: frame I:1086 Avg QP:13.38 size: 83766
x264 [info]: frame P:38987 Avg QP:16.94 size: 23029
x264 [info]: frame B:127575 Avg QP:18.68 size: 5947

-------------------------

General
Unique ID : 197029849631234963586791913284282208139 (0x943A9198920BDF018BDD7C269355CF8B)
Complete name : H:The.Railway.Man.2013.BD.720.Hot-Film.mkv
Format : Matroska
Format version : Version 2
File size : 2.46 GiB
Duration : 01:56:32
Overall bit rate : 3 025 Kbps
Encoded date : UTC 2014-07-05 11:52:36
Writing application : mkvmerge v5.8.0 ('No Sleep / Pillow') built on Sep 2 2012 15:37:04
Writing library : libebml v1.2.3 + libmatroska v1.3.0
Attachment : Yes

Video
ID : 1
Format : AVC
Format/Info : Advanced Video Codec
Format profile : High@L4.1
Format settings, CABAC : Yes
Format settings, ReFrames : 9 frames
Codec ID : V_MPEG4/ISO/AVC
Duration : 1h 56mn
Bit rate : 2 000 Kbps
Width : 1 280 pixels
Height : 534 pixels
Display aspect ratio : 2.40:1
Frame rate mode : Constant
Frame rate : 23.976 fps
Color space : YUV
Chroma subsampling : 4:2:0
Bit depth : 8 bits
Scan type : Progressive
Bits/(Pixel*Frame) : 0.122
Stream size : 1.58 GiB (64%)
Writing library : x264 core 138 r2358 9e941d1
Encoding settings : cabac=1 / ref=9 / deblock=1:-3:-3 / analyse=0x3:0x133 / me=umh / subme=11 / psy=1 / psy_rd=1.00:0.10 / mixed_ref=1 / me_range=32 / chroma_me=1 / trellis=2 / 8x8dct=1 / cqm=0 / deadzone=21,11 / fast_pskip=0 / chroma_qp_offset=-3 / threads=12 / lookahead_threads=3 / sliced_threads=0 / nr=0 / decimate=0 / interlaced=0 / bluray_compat=0 / constrained_intra=0 / bframes=12 / b_pyramid=2 / b_adapt=2 / b_bias=0 / direct=3 / weightb=1 / open_gop=0 / weightp=2 / keyint=240 / keyint_min=23 / scenecut=40 / intra_refresh=0 / rc_lookahead=40 / rc=2pass / mbtree=0 / bitrate=2000 / ratetol=1.0 / qcomp=0.60 / qpmin=0 / qpmax=69 / qpstep=4 / cplxblur=20.0 / qblur=0.5 / vbv_maxrate=50000 / vbv_bufsize=62500 / nal_hrd=none / ip_ratio=1.40 / pb_ratio=1.30 / aq=1:0.80
Language : English
Default : Yes
Forced : No

Audio #1
ID : 2
Format : AC-3
Format/Info : Audio Coding 3
Mode extension : CM (complete main)
Format settings, Endianness : Big
Codec ID : A_AC3
Duration : 1h 56mn
Bit rate mode : Constant
Bit rate : 384 Kbps
Channel(s) : 2 channels
Channel positions : Front: L R
Sampling rate : 48.0 KHz
Bit depth : 16 bits
Compression mode : Lossy
Stream size : 320 MiB (13%)
Title : DUB
Language : Russian
Default : Yes
Forced : No

Audio #2
ID : 3
Format : AC-3
Format/Info : Audio Coding 3
Mode extension : CM (complete main)
Format settings, Endianness : Big
Codec ID : A_AC3
Duration : 1h 56mn
Bit rate mode : Constant
Bit rate : 640 Kbps
Channel(s) : 6 channels
Channel positions : Front: L C R, Side: L R, LFE
Sampling rate : 48.0 KHz
Bit depth : 16 bits
Compression mode : Lossy
Stream size : 534 MiB (21%)
Title : Original
Language : English
Default : No
Forced : No

Text #1
ID : 4
Format : UTF-8
Codec ID : S_TEXT/UTF8
Codec ID/Info : UTF-8 Plain Text
Title : Full (Notabenoid)
Language : Russian
Default : No
Forced : No

Text #2
ID : 5
Format : UTF-8
Codec ID : S_TEXT/UTF8
Codec ID/Info : UTF-8 Plain Text
Title : Full
Language : English
Default : No
Forced : No

Text #3
ID : 6
Format : UTF-8
Codec ID : S_TEXT/UTF8
Codec ID/Info : UTF-8 Plain Text
Title : SDH
Language : English
Default : No
Forced : No

Menu
00:00:00.000 : :Chapter 01
00:15:30.888 : :Chapter 02
00:28:08.437 : :Chapter 03
00:45:06.078 : :Chapter 04
01:03:45.030 : :Chapter 05
01:13:11.762 : :Chapter 06
01:29:38.623 : :Chapter 07
01:48:52.401 : :Chapter 08




реклама партнёра


Вернуться к началу
 Профиль  
 
   Похожие торренты   Автор   Торрент   Размер 
В этой теме нет новых непрочитанных сообщений. Танцовщица / La danseuse [драма, биография, музыка, 2016] BDRip 720p, Mvo+Sub [чистый звук]

salma3

67 | 37

5.57 ГБ

В этой теме нет новых непрочитанных сообщений. Стив Джобс / Steve Jobs [драма, биография, 2015] BDRip 720p, dub [Чистый звук]

Dracon

1178 | 70

5.63 ГБ

В этой теме нет новых непрочитанных сообщений. Сен-Лоран. Стиль – это я / Saint Laurent [драма, биография, 2014] BDRip 720p, dub [чистый звук]

Dracon

4 | 2

6.95 ГБ

В этой теме нет новых непрочитанных сообщений. Игра в имитацию / The Imitation Game (Мортен Тильдум) [триллер, драма, военный, биография, 2014] BDRip 720p, dub [Чистый звук]

Dracon

15 | 3

5.62 ГБ

В этой теме нет новых непрочитанных сообщений. Ненетт / Demi-soeur (Жак Дуайон) [драма, 2013] BDRip 720p, dub [Чистый звук]

Dracon

62 | 2

4.49 ГБ

В этой теме нет новых непрочитанных сообщений. Экстрасенс 2: Лабиринты разума / Mindscape [триллер, драма, 2013] BDRip 720p, dub [чистый звук]

Dracon

5 | 2

4.97 ГБ

В этой теме нет новых непрочитанных сообщений. Большие глаза / Big Eyes (Тим Бёртон) [драма, биография, 2014] WEB-DL 720p, dub [Чистый звук]

Dracon

12 | 2

3.34 ГБ


Начать новую тему Ответить на тему  [ 1 сообщение ] 




Для Мосгорсуда, Роскомнадзора и рекламодателей:: mosgorsud-torrent[собачка]yandex.ru