Торрент файл
скачать торрент магнет ссылка Добавлен: 04 июл 2014, 13:25
Размер: 1.46 ГБ
Сидеров: 20
Личеров: 4
Статус: (salma3)
Автор

СообщениеДобавлено: 04 июл 2014, 13:25 

Не в сети
Супермодератор
Аватара пользователя
Дата регистрации:
15 фев 2012, 16:44
Возраст: 27
Спасибо: 5139 / 2089
Сообщения: 17411
Убийцы на замену / The Replacement Killers

«Убийца становится мишенью»

Год выпуска: 1998
Жанр: боевик, триллер, драма, криминал
Режиссер: Антуан Фукуа /Antoine Fuqua

В ролях:
Чоу Юн-Фат /Chow Yun-Fat/, Майра Сорвино /Mira Sorvino/, Майкл Рукер /Michael Rooker/, Юрген Прохнов /Jurgen Prochnow/, Карлос Гомес /Carlos Gomez,,,

Описание:
Профессиональный киллер Джон Ли получает новое задание — убить полицейского. Но в решающий момент он не смог нажать на курок: под прицелом оказался ребенок. А мафия не прощает ошибок. На замену она посылает своих людей, и Джон становится мишенью. Теперь он и мошенница Мэг, которая случайно становится участницей всех событий, попадают под перекрестный огонь преступников и полиции. Единственный способ спастись — скрываться и от тех и от других, но рано или поздно им придется столкнуться лицом к лицу…



Страна: США
Продолжительность: 01:36:07
Перевод: Профессиональный (полное дублирование)
Оригинальная аудиодорожка: английский
Cубтитры: русский

Файл
Качество: BDRip
Формат файла: AVI
Видео кодек: XviD
Аудио кодек: AC3
Видео: 720x304 (2.35:1), 23,976 fps, XviD ~ 1393 kbps avg, 0.265 bit/pixel
Аудио: 48 kHz, Dolby Digital AC3 5.1, 384 kbps [DUB]
Аудио: 48 kHz, Dolby Digital AC3 5.1, 384 kbps [Английский]
Субтитры: SoftSub (srt)

Общее
Полное имя : Ubiycy.na.zamenu.1998.BDRip_[New-team]_by_AVP_Studio.avi
Формат : AVI
Формат/Информация : Audio Video Interleave
Размер файла : 1,46 Гбайт
Продолжительность : 1 ч. 36 м.
Общий поток : 2174 Кбит/сек
Программа кодирования : VirtualDubModRus 1.5.10.2 (build 2542/release)
Библиотека кодирования : VirtualDubMod build 2542/release

Видео
Идентификатор : 0
Формат : MPEG-4 Visual
Профиль формата : Advanced Simple@L5
Параметр BVOP формата : 1
Параметр QPel формата : Нет
Параметр GMC формата : Без точки перехода
Параметр матрицы формата : Выборочная
Идентификатор кодека : XVID
Идентификатор кодека/Подсказка : XviD
Продолжительность : 1 ч. 36 м.
Битрейт : 1393 Кбит/сек
Ширина : 720 пикселей
Высота : 304 пикселя
Соотношение сторон : 2,35:1
Частота кадров : 23,976 кадра/сек
Цветовое пространство : YUV
Субдискретизация насыщенности : 4:2:0
Битовая глубина : 8 бит
Тип развёртки : Прогрессивная
Метод сжатия : С потерями
Бит/(Пиксели*Кадры) : 0.265
Размер потока : 957 Мбайт (64%)
Библиотека кодирования : XviD 73

Аудио #1
Идентификатор : 1
Формат : AC-3
Формат/Информация : Audio Coding 3
Расширение режима : CM (complete main)
Параметр Endianness формата : Big
Идентификатор кодека : 2000
Продолжительность : 1 ч. 36 м.
Вид битрейта : Постоянный
Битрейт : 384 Кбит/сек
Каналы : 6 каналов
Расположение каналов : Front: L C R, Side: L R, LFE
Частота : 48,0 КГц
Битовая глубина : 16 бит
Метод сжатия : С потерями
Размер потока : 264 Мбайт (18%)
Выравнивание : Разделение по промежуткам
Продолжительность промежутка : 42 мс. (1,00 видеокадр)
Время предзагрузки промежутка : 500 мс.

Аудио #2
Идентификатор : 2
Формат : AC-3
Формат/Информация : Audio Coding 3
Расширение режима : CM (complete main)
Параметр Endianness формата : Big
Идентификатор кодека : 2000
Продолжительность : 1 ч. 36 м.
Вид битрейта : Постоянный
Битрейт : 384 Кбит/сек
Каналы : 6 каналов
Расположение каналов : Front: L C R, Side: L R, LFE
Частота : 48,0 КГц
Битовая глубина : 16 бит
Метод сжатия : С потерями
Размер потока : 264 Мбайт (18%)
Выравнивание : Разделение по промежуткам
Продолжительность промежутка : 42 мс. (1,00 видеокадр)
Время предзагрузки промежутка : 500 мс


Раздача от


_________________



реклама партнёра


Вернуться к началу
 Профиль Отправить личное сообщение  
 
   Похожие торренты   Автор   Торрент   Размер 
В этой теме нет новых непрочитанных сообщений. Убийцы / Killers [Боевик, триллер, драма, криминал, 2014] BDRip 720p, Dvo+Sub

salma3

100 | 6

6.04 ГБ

В этой теме нет новых непрочитанных сообщений. Убийцы / The Killers [драма, криминал, детектив, 1964] BDRip 720p, Dvo+Sub

salma3

25 | 2

7.65 ГБ

В этой теме нет новых непрочитанных сообщений. Мирные убийцы / Нарушители покоя / The Peace Killers [боевик, драма, криминал, 1971] SATRip, Dvo

salma3

12 | 5

1.27 ГБ

В этой теме нет новых непрочитанных сообщений. Убийцы вампирш-лесбиянок / Lesbian Vampire Killers [ужасы, боевик, чёрная комедия, 2009] BDRip, Mvo [Лицензия]

salma3

8 | 3

1.46 ГБ

В этой теме нет новых непрочитанных сообщений. Замена / Учитель на замену / The Substitute [боевик, триллер, драма, криминал, 1996] HDRip, Mvo

salma3

65 | 5

1.45 ГБ

В этой теме нет новых непрочитанных сообщений. Письма убийцы / Letters from a Killer [Триллер, драма, криминал, детектив, 1998] DVDRip, Mvo

salma3

500 | 482

1.51 ГБ

В этой теме нет новых непрочитанных сообщений. Убийственная грань / Лезвия убийцы / The Killers Edge / Blood Money [Боевик, 1991] DVDRip, Avo

salma3

4 | 3

1.37 ГБ


Начать новую тему Ответить на тему  [ 1 сообщение ] 




Для Мосгорсуда, Роскомнадзора и рекламодателей:: mosgorsud-torrent[собачка]yandex.ru