Торрент файл
скачать торрент магнет ссылка Добавлен: 04 июл 2014, 13:01
Размер: 1.46 ГБ
Сидеров: 17
Личеров: 2
Статус: (salma3)
Автор

СообщениеДобавлено: 04 июл 2014, 13:01 

Не в сети
Супермодератор
Аватара пользователя
Дата регистрации:
15 фев 2012, 16:44
Возраст: 27
Спасибо: 5143 / 2090
Сообщения: 17513
Возвращение в Затерянный мир / Return to the Lost World

Год выпуска: 1992
Жанр: фантастика, приключения
Режиссер: Тимоти Бонд / Timothi Bond

В ролях:
Джон Рис-Дэвис / John Rhys-Davies, Дэвид Уорнер / David Warner, Эрик МакКормак / Eric McCormack, Натания Стэнфорд / Nathania Stanford, Даррен Питер Мерсер / Darren Peter Mercer, Тамара Горски / Tamara Gorski...

Описание:
В Африку за нефтью и прочими сокровищами устремляются европейские авантюристы всех мастей. Среди них — бельгиец Хэйманс с группой головорезов. Дорогу к месторождениям он прокладывает себе, вырубая растительность, истребляя огнем и взрывчаткой уникальных животных, порабощая и убивая местных жителей. Под девизом «Никаких больше богов! — только Смерть» Хейманс сбрасывает с утеса вождя местного племени и добивает динозавра, выжившего после динамитного взрыва. В отчаянии красавица-абориген Малу приходит к Кейт Криншоу, которая телеграфирует лондонскому репортеру Эдварду Мелоуну и фотографу Дженни Нильсон о том, что из-за добычи нефти их любимые реликтовые твари находятся в опасности. Журналисты бьют тревогу, вновь находящиеся по разные стороны теоретических баррикад (на сей раз — по вопросу происхождения реки Ориноко) профессора Челленджер и Саммерли присоединяются к ним, и все вместе они спешат на помощь Затерянному Миру…



Страна: Канада
Продолжительность: 01:29:47
Перевод: Профессиональный (многоголосый, закадровый)
Оригинальная аудиодорожка: английский
Cубтитры: русский

Файл
Качество: DVDRip-AVC
Формат файла: MKV
Видео кодек: H264
Аудио кодек: AC3
Видео: 696->760x570 (4:3), 25,000 fps, H264 ~ 1935 kbps avg, 0.195 bit/pixel
Аудио: 48 kHz, Dolby Digital AC3 2.0, 192 kbps [MVO]
Аудио: 48 kHz, Dolby Digital AC3 2.0, 192 kbps [Английский]
Субтитры: SoftSub (srt)


Общее
Полное имя : Vozvrashhenie.v.Zateryannyy.Mir.1992.DVDRip-AVC_[New-team]_by_AVP_Studio.mkv
Формат : Matroska
Версия формата : Version 4 / Version 2
Размер файла : 1,46 Гбайт
Продолжительность : 1 ч. 29 м.
Общий поток : 2321 Кбит/сек
Название фильма : Vozvrashhenie.v.Zateryannyy.Mir.1992.DVDRip-AVC_[New-team]_by_AVP_Studio
Дата кодирования : UTC 2014-07-02 09:06:11
Программа кодирования : mkvmerge v6.9.1 ('Blue Panther') 64bit built on Apr 18 2014 18:23:38
Библиотека кодирования : libebml v1.3.0 + libmatroska v1.4.1

Видео
Идентификатор : 1
Формат : AVC
Формат/Информация : Advanced Video Codec
Профиль формата : High@L4.1
Параметр CABAC формата : Да
Параметр ReFrames формата : 8 кадров
Идентификатор кодека : V_MPEG4/ISO/AVC
Продолжительность : 1 ч. 29 м.
Битрейт : 1935 Кбит/сек
Ширина : 696 пикселей
Высота : 570 пикселей
Соотношение сторон : 4:3
Режим частоты кадров : Постоянный
Частота кадров : 25,000 кадров/сек
Цветовое пространство : YUV
Субдискретизация насыщенности : 4:2:0
Битовая глубина : 8 бит
Тип развёртки : Прогрессивная
Бит/(Пиксели*Кадры) : 0.195
Размер потока : 1,19 Гбайт (81%)
Заголовок : Источник DVD
Библиотека кодирования : x264 core 138 r2356 a1d3d17
Настройки программы : cabac=1 / ref=8 / deblock=1:-2:-1 / analyse=0x3:0x113 / me=umh / subme=10 / psy=1 / psy_rd=1.00:0.05 / mixed_ref=1 / me_range=32 / chroma_me=1 / trellis=2 / 8x8dct=1 / cqm=0 / deadzone=21,11 / fast_pskip=0 / chroma_qp_offset=-3 / threads=6 / lookahead_threads=1 / sliced_threads=0 / nr=0 / decimate=0 / interlaced=0 / bluray_compat=0 / constrained_intra=0 / bframes=8 / b_pyramid=2 / b_adapt=2 / b_bias=0 / direct=3 / weightb=1 / open_gop=0 / weightp=2 / keyint=250 / keyint_min=25 / scenecut=40 / intra_refresh=0 / rc=2pass / mbtree=0 / bitrate=1935 / ratetol=1.0 / qcomp=0.60 / qpmin=0 / qpmax=69 / qpstep=4 / cplxblur=20.0 / qblur=0.5 / ip_ratio=1.40 / pb_ratio=1.30 / aq=1:1.00
Язык : English
Default : Да
Forced : Нет

Аудио #1
Идентификатор : 2
Формат : AC-3
Формат/Информация : Audio Coding 3
Расширение режима : CM (complete main)
Параметр Endianness формата : Big
Идентификатор кодека : A_AC3
Продолжительность : 1 ч. 29 м.
Вид битрейта : Постоянный
Битрейт : 192 Кбит/сек
Каналы : 2 канала
Расположение каналов : Front: L R
Частота : 48,0 КГц
Битовая глубина : 16 бит
Метод сжатия : С потерями
Размер потока : 123 Мбайт (8%)
Заголовок : Источник DVD Dolby Digital 2,0 192 kbps MVO
Default : Да
Forced : Нет

Аудио #2
Идентификатор : 3
Формат : AC-3
Формат/Информация : Audio Coding 3
Профиль формата : Dolby Digital
Расширение режима : CM (complete main)
Параметр Endianness формата : Big
Идентификатор кодека : A_AC3
Продолжительность : 1 ч. 29 м.
Вид битрейта : Постоянный
Битрейт : 192 Кбит/сек
Каналы : 2 канала
Расположение каналов : Front: L R
Частота : 48,0 КГц
Битовая глубина : 16 бит
Метод сжатия : С потерями
Размер потока : 123 Мбайт (8%)
Заголовок : Источник DVD Dolby Digital 2,0 192 kbps
Язык : English
Default : Нет
Forced : Нет

Текст
Идентификатор : 4
Формат : UTF-8
Идентификатор кодека : S_TEXT/UTF8
Идентификатор кодека/Информация : UTF-8 Plain Text
Заголовок : Источник DVD SoftSub (srt)
Язык : Russian
Default : Нет
Forced : Нет

Меню
00:00:00.000 : ru:00:00:00.000000000
00:05:00.000 : :00:05:00.000000000
00:10:00.000 : :00:10:00.000000000
00:15:00.000 : :00:15:00.000000000
00:20:00.000 : :00:20:00.000000000
00:25:00.000 : :00:25:00.000000000
00:30:00.000 : :00:30:00.000000000
00:35:00.000 : :00:35:00.000000000
00:40:00.000 : :00:40:00.000000000
00:45:00.000 : :00:45:00.000000000
00:50:00.000 : :00:50:00.000000000
00:55:00.000 : :00:55:00.000000000
01:00:00.000 : :01:00:00.000000000
01:05:00.000 : :01:05:00.000000000
01:10:00.000 : :01:10:00.000000000
01:15:00.000 : :01:15:00.000000000
01:20:00.000 : :01:20:00.000000000
01:25:00.000 : :01:25:00.000000000


Раздача от:


_________________



реклама партнёра


Вернуться к началу
 Профиль Отправить личное сообщение  
 
   Похожие торренты   Автор   Торрент   Размер 
В этой теме нет новых непрочитанных сообщений. Затерянный мир / The Lost World [фантастика, фэнтези, приключения, 1992] DVDRip-AVC, Mvo+Sub

salma3

14 | 3

1.46 ГБ

В этой теме нет новых непрочитанных сообщений. Затерянный Мир / The Lost World [фантастика, приключения, 1998] DVDRip-AVC, Mvo+Sub

salma3

30 | 5

1.45 ГБ

В этой теме нет новых непрочитанных сообщений. Затерянный Мир / The Lost World [фантастика, приключения, 1998] DVDRip, Mvo+Sub

salma3

11 | 6

1.46 ГБ

В этой теме нет новых непрочитанных сообщений. Затерянный мир / The Lost World / 1-3 сезоны 1-67 серии из 67 [фантастика, фэнтези, боевик, приключения, 1999–2002] DVDRip, Dub

salma3

18 | 15

25.92 ГБ

В этой теме нет новых непрочитанных сообщений. Тарзан и затерянный город / Tarzan and the Lost City [фэнтези, боевик, приключения, семейный, 1998] DVDRip, Avo

salma3

46 | 7

1.46 ГБ

В этой теме нет новых непрочитанных сообщений. Возвращение живых мертвецов 3 / Return of the Living Dead 3 [ужасы, фантастика, мелодрама, 1993] DVDRip, Mvo

salma3

6 | 6

1.37 ГБ

В этой теме нет новых непрочитанных сообщений. Возвращение-помидоров-убийц / Return of the Killer Tomatoes [ужасы, фантастика, комеди, 1988] DVDRip, Mvo [Лицензия]

salma3

50 | 4

1.46 ГБ


Начать новую тему Ответить на тему  [ 1 сообщение ] 




Для Мосгорсуда, Роскомнадзора и рекламодателей:: mosgorsud-torrent[собачка]yandex.ru