Торрент файл
скачать торрент магнет ссылка Добавлен: 04 июл 2014, 12:40
Размер: 745.26 МБ
Сидеров: 7
Личеров: 4
Статус: (salma3)
Автор

СообщениеДобавлено: 04 июл 2014, 12:40 

Не в сети
Супермодератор
Аватара пользователя
Дата регистрации:
15 фев 2012, 16:44
Возраст: 27
Спасибо: 5143 / 2090
Сообщения: 17495
Похитители / Les Kidnappeurs

Год выпуска: 1998
Жанр: боевик, комедия, криминал
Режиссер: Грэм Гюи / Graham Guit

В ролях:
Ромен Дюри, Мельвиль Пупо, Элоди Буше, Айзек Шарри, Эли Каку, Элен Фийере, Патрик Лизана, Саша Бурдо, Ришар Шевалье, Клиффорд Энди...

Описание:
Профессиональный взломщик сейфов Арман, вышедший из тюрьмы и заставший любимую девушку в постели с другим мужчиной… Беззаботная Клэр, перед которой не устоит ни одна система безопасности… Охваченный депрессией Зеро, помешанный на автомобилях… Мелкий жулик Улисс, зацикленный на оружии… Они не должны были доверять друг другу и вместе идти на дело. И все же, сколотив «крутую банду», они замышляют совершить «самое плевое ограбление века». То, что им удалось похитить, превзошло все возможные ожидания. Одна беда — их добыча оказалась нужна слишком многим. Легкое дельце оборачивается большими неприятностями…



Страна: Франция
Продолжительность: 01:36:15
Перевод: Профессиональный (многоголосый, закадровый)
Оригинальная аудиодорожка: французский

Файл
Качество: DVDRip
Формат файла: AVI
Видео кодек: XviD
Аудио кодек: AC3
Видео: 704x304 (2,35:1), 25,000 fps, XviD ~ 945 kbps avg, 0.177 bit/pixel
Аудио: 48 kHz, MP3 2.0, 128 kbps

Общее
Полное имя : Pohititeli.1998.DVDRip-745_[New-team]_by_AVP_Studio.avi
Формат : AVI
Формат/Информация : Audio Video Interleave
Размер файла : 745 Мбайт
Продолжительность : 1 ч. 36 м.
Общий поток : 1082 Кбит/сек
Программа кодирования : VirtualDubModRus 1.5.10.2 (build 2542/release)
Библиотека кодирования : VirtualDubMod build 2542/release

Видео
Идентификатор : 0
Формат : MPEG-4 Visual
Профиль формата : Advanced Simple@L5
Параметр BVOP формата : 1
Параметр QPel формата : Нет
Параметр GMC формата : Без точки перехода
Параметр матрицы формата : Выборочная
Идентификатор кодека : XVID
Идентификатор кодека/Подсказка : XviD
Продолжительность : 1 ч. 36 м.
Битрейт : 945 Кбит/сек
Ширина : 704 пикселя
Высота : 304 пикселя
Соотношение сторон : 2,35:1
Частота кадров : 25,000 кадров/сек
Цветовое пространство : YUV
Субдискретизация насыщенности : 4:2:0
Битовая глубина : 8 бит
Тип развёртки : Прогрессивная
Метод сжатия : С потерями
Бит/(Пиксели*Кадры) : 0.177
Размер потока : 650 Мбайт (87%)
Библиотека кодирования : XviD 73

Аудио
Идентификатор : 1
Формат : MPEG Audio
Версия формата : Version 1
Профиль формата : Layer 3
Идентификатор кодека : 55
Идентификатор кодека/Подсказка : MP3
Продолжительность : 1 ч. 36 м.
Вид битрейта : Постоянный
Битрейт : 128 Кбит/сек
Каналы : 2 канала
Частота : 48,0 КГц
Метод сжатия : С потерями
Размер потока : 88,1 Мбайт (12%)
Выравнивание : Соединение по промежуткам
Продолжительность промежутка : 40 мс. (1,00 видеокадр)
Время предзагрузки промежутка : 504 мс.
Библиотека кодирования : LAME3.99r
Настройки программы : -m s -V 4 -q 2 -lowpass 17 -b 128


Раздача от:


_________________



реклама партнёра


Вернуться к началу
 Профиль Отправить личное сообщение  
 
   Похожие торренты   Автор   Торрент   Размер 
В этой теме нет новых непрочитанных сообщений. Похитители / Les Kidnappeurs [боевик, комедия, криминал, 1998] DVDRip, Mvo

salma3

10 | 4

1.46 ГБ

В этой теме нет новых непрочитанных сообщений. Похитители / Les Kidnappeurs [боевик, комедия, криминал, 1998] DVDRip-AVC, Mvo

salma3

12 | 3

1.46 ГБ

В этой теме нет новых непрочитанных сообщений. Смертельная игра / Deadly Game [боевик, триллер, комедия, криминал, семейный, 1998] DVDRip, Mvo+Dvo [Рен ТВ]

salma3

1 | 3

1.47 ГБ

В этой теме нет новых непрочитанных сообщений. Большое дело / The Big Hit [боевик, триллер, комедия, криминал, 1998] Blu-ray EUR 1080p, Dub+Sub

salma3

20 | 17

19.17 ГБ

В этой теме нет новых непрочитанных сообщений. Беглец / Spoiler [Боевик, Криминал, Приключения, 1998] DVDRip, Mvo

salma3

0 | 2

1.32 ГБ

В этой теме нет новых непрочитанных сообщений. Обход / Detour [боевик, триллер, драма, криминал, 1998] DVDRip, Mvo

salma3

38 | 5

1.37 ГБ

В этой теме нет новых непрочитанных сообщений. Крутые времена / Hard Time [боевик, драма, криминал, 1998] DVDRip, Avo

salma3

3 | 1

1.14 ГБ


Начать новую тему Ответить на тему  [ 1 сообщение ] 




Для Мосгорсуда, Роскомнадзора и рекламодателей:: mosgorsud-torrent[собачка]yandex.ru