Торрент файл
скачать торрент магнет ссылка Добавлен: 04 июл 2014, 12:34
Размер: 1.46 ГБ
Сидеров: 12
Личеров: 3
Статус: (salma3)
Автор

СообщениеДобавлено: 04 июл 2014, 12:34 

В сети
Супермодератор
Аватара пользователя
Дата регистрации:
15 фев 2012, 16:44
Возраст: 28
Спасибо: 6563 / 2129
Сообщения: 43563
Похитители / Les Kidnappeurs

Год выпуска: 1998
Жанр: боевик, комедия, криминал
Режиссер: Грэм Гюи / Graham Guit

В ролях:
Ромен Дюри, Мельвиль Пупо, Элоди Буше, Айзек Шарри, Эли Каку, Элен Фийере, Патрик Лизана, Саша Бурдо, Ришар Шевалье, Клиффорд Энди...

Описание:
Профессиональный взломщик сейфов Арман, вышедший из тюрьмы и заставший любимую девушку в постели с другим мужчиной… Беззаботная Клэр, перед которой не устоит ни одна система безопасности… Охваченный депрессией Зеро, помешанный на автомобилях… Мелкий жулик Улисс, зацикленный на оружии… Они не должны были доверять друг другу и вместе идти на дело. И все же, сколотив «крутую банду», они замышляют совершить «самое плевое ограбление века». То, что им удалось похитить, превзошло все возможные ожидания. Одна беда — их добыча оказалась нужна слишком многим. Легкое дельце оборачивается большими неприятностями…



Страна: Франция
Продолжительность: 01:36:15
Перевод: Профессиональный (многоголосый, закадровый)
Оригинальная аудиодорожка: французский

Файл
Качество: DVDRip-AVC
Формат файла: AVC
Видео кодек: H264
Аудио кодек: AC3
Видео: 696->756x322 (2.35:1), 25,000 fps, H264 ~ 1779 kbps avg, 0.318 bit/pixel
Аудио: 48 kHz, Dolby Digital AC3 5.1, 384 kbps [MVO]
Аудио: 48 kHz, Dolby Digital AC3 5.1, 384 kbps [Французский]

Общее
Полное имя : Pohititeli.1998.DVDRip-AVC_[New-team]_by_AVP_Studio.mkv
Формат : Matroska
Версия формата : Version 4 / Version 2
Размер файла : 1,46 Гбайт
Продолжительность : 1 ч. 36 м.
Общий поток : 2165 Кбит/сек
Название фильма : Pohititeli.1998.DVDRip-AVC_[New-team]_by_AVP_Studio
Дата кодирования : UTC 2014-07-04 08:12:18
Программа кодирования : mkvmerge v6.9.1 ('Blue Panther') 64bit built on Apr 18 2014 18:23:38
Библиотека кодирования : libebml v1.3.0 + libmatroska v1.4.1

Видео
Идентификатор : 1
Формат : AVC
Формат/Информация : Advanced Video Codec
Профиль формата : High@L4.1
Параметр CABAC формата : Да
Параметр ReFrames формата : 8 кадров
Идентификатор кодека : V_MPEG4/ISO/AVC
Продолжительность : 1 ч. 36 м.
Битрейт : 1779 Кбит/сек
Ширина : 696 пикселей
Высота : 322 пикселя
Соотношение сторон : 2,35:1
Соотношение сторон в оригинале : 2,35:1
Режим частоты кадров : Постоянный
Частота кадров : 25,000 кадров/сек
Цветовое пространство : YUV
Субдискретизация насыщенности : 4:2:0
Битовая глубина : 8 бит
Тип развёртки : Прогрессивная
Бит/(Пиксели*Кадры) : 0.318
Размер потока : 1,17 Гбайт (80%)
Заголовок : Источник DVD
Библиотека кодирования : x264 core 138 r2356 a1d3d17
Настройки программы : cabac=1 / ref=8 / deblock=1:-2:-1 / analyse=0x3:0x113 / me=umh / subme=10 / psy=1 / psy_rd=1.00:0.05 / mixed_ref=1 / me_range=32 / chroma_me=1 / trellis=2 / 8x8dct=1 / cqm=0 / deadzone=21,11 / fast_pskip=0 / chroma_qp_offset=-3 / threads=6 / lookahead_threads=1 / sliced_threads=0 / nr=0 / decimate=0 / interlaced=0 / bluray_compat=0 / constrained_intra=0 / bframes=8 / b_pyramid=2 / b_adapt=2 / b_bias=0 / direct=3 / weightb=1 / open_gop=0 / weightp=2 / keyint=250 / keyint_min=25 / scenecut=40 / intra_refresh=0 / rc=2pass / mbtree=0 / bitrate=1779 / ratetol=1.0 / qcomp=0.60 / qpmin=0 / qpmax=69 / qpstep=4 / cplxblur=20.0 / qblur=0.5 / ip_ratio=1.40 / pb_ratio=1.30 / aq=1:1.00
Язык : French
Default : Да
Forced : Нет

Аудио #1
Идентификатор : 2
Формат : AC-3
Формат/Информация : Audio Coding 3
Расширение режима : CM (complete main)
Параметр Endianness формата : Big
Идентификатор кодека : A_AC3
Продолжительность : 1 ч. 36 м.
Вид битрейта : Постоянный
Битрейт : 192 Кбит/сек
Каналы : 2 канала
Расположение каналов : Front: L R
Частота : 48,0 КГц
Битовая глубина : 16 бит
Метод сжатия : С потерями
Размер потока : 132 Мбайт (9%)
Заголовок : Источник DVD Dolby Digital 2,0 192 kbps
Язык : Russian
Default : Да
Forced : Нет

Аудио #2
Идентификатор : 3
Формат : AC-3
Формат/Информация : Audio Coding 3
Расширение режима : CM (complete main)
Параметр Endianness формата : Big
Идентификатор кодека : A_AC3
Продолжительность : 1 ч. 36 м.
Вид битрейта : Постоянный
Битрейт : 192 Кбит/сек
Каналы : 2 канала
Расположение каналов : Front: L R
Частота : 48,0 КГц
Битовая глубина : 16 бит
Метод сжатия : С потерями
Размер потока : 132 Мбайт (9%)
Заголовок : Источник DVD Dolby Digital 2,0 192 kbps
Язык : French
Default : Нет
Forced : Нет


Раздача от:


_________________
Проголосуй за трекер Открытый торрент трекер - RUS-MEDIA.ORG

Проголосуй Открытый торрент трекер - RUS-MEDIA.ORG



реклама партнёра


Вернуться к началу
 Профиль Отправить личное сообщение  
 
   Похожие торренты   Автор   Торрент   Размер 
В этой теме нет новых непрочитанных сообщений. Такси / Taxi [боевик, комедия, криминал, 1998] BDRip, Dub

salma3

114 | 20

1.45 ГБ

В этой теме нет новых непрочитанных сообщений. Большое дело / The Big Hit [боевик, триллер, комедия, криминал, 1998] Blu-ray EUR 1080p, Dub+Sub

salma3

20 | 17

19.17 ГБ

В этой теме нет новых непрочитанных сообщений. Обход / Detour [боевик, триллер, драма, криминал, 1998] DVDRip, Mvo

salma3

38 | 5

1.37 ГБ

В этой теме нет новых непрочитанных сообщений. Понты / Everybody Loves Sunshine / Busted [Боевик, Драма, Криминал, 1998] DVDRip, Dvo

salma3

55 | 0

1.46 ГБ

В этой теме нет новых непрочитанных сообщений. Убийца ворон / A Murder of Crows [боевик, триллер, криминал, 1998] DVDRip, Avo

salma3

120 | 19

1.46 ГБ

В этой теме нет новых непрочитанных сообщений. Крутые времена / Hard Time [боевик, драма, криминал, 1998] DVDRip, Avo

salma3

3 | 1

1.14 ГБ

В этой теме нет новых непрочитанных сообщений. Братья Блюз 2000 / Blues Brothers 2000 [боевик, комедия, криминал, музыка, 1998] Blu-ray 1080p, Mvo+Sub

salma3

11 | 7

35.86 ГБ


Начать новую тему Ответить на тему  [ 1 сообщение ] 




Для Мосгорсуда, Роскомнадзора и рекламодателей:: mosgorsud-torrent[собачка]yandex.ru