Торрент файл
скачать торрент магнет ссылка Добавлен: 03 июл 2014, 23:29
Размер: 1.46 ГБ
Сидеров: 9
Личеров: 3
Статус: (salma3)
Автор

СообщениеДобавлено: 03 июл 2014, 23:29 

Не в сети
Супермодератор
Аватара пользователя
Дата регистрации:
15 фев 2012, 16:44
Возраст: 27
Спасибо: 5139 / 2089
Сообщения: 17411
Ярость / The Rage

Год выпуска: 1997
Жанр: Боевик
Режиссер: Сидни Дж. Фьюри / Sidney J. Furie

В ролях: Лоренцо Ламас, Кристен Клоук, Гэри Бьюзи, Брэндон Смит, Тиани Уорден, Делл Йонт, Дэвид Кэррэдин, Рой Шайдер, Дэвид Дженсен, Русс МакДжинн

Описание:
Возглавляемая психопатом Дейси банда, состоящая из смертельно опасных и прекрасно обученных бойцов элитного спецотряда, совершает серию жестоких убийств. Безжалостные солдаты не только расправляются я молодыми девушками, но и строят планы уничтожения всех высших политических и военных чинов государства, считая, что только так можно отомстить за свою сегодняшнюю ненужность.



Страна: США
Продолжительность: 01:31:07
Перевод: Профессиональный (двухголосый закадровый) [REN TV]

Файл
Качество: DVDRip [исх. DVD5]
Формат файла: AVI
Видео кодек: XviD
Аудио кодек: AC3
Video: 640x480 (1.33:1), 25 fps, XviD build 50 ~2028 kbps avg, 0.26 bit/pixel
Audio: 48 kHz, AC3 Dolby Digital, 2/0 (L,R) ch, ~256.00 kbps avg

Время Раздачи 11-00 до 16-00 + 20-00 до 03-00

download\The_Rage_1997.DVDRip.avi.avi
Формат : AVI
Формат/Информация : Audio Video Interleave
Размер файла : 1,46 Гбайт
Продолжительность : 1 ч. 31 м.
Общий поток : 2294 Кбит/сек
Программа кодирования : VirtualDubMod 1.5.10.3 | http://www.virtualdub-fr.org || (build 2550/release)
Библиотека кодирования : VirtualDubMod build 2550/release

Видео
Идентификатор : 0
Формат : MPEG-4 Visual
Профиль формата : Advanced Simple@L5
Параметр BVOP формата : 2
Параметр QPel формата : Нет
Параметр GMC формата : Без точки перехода
Параметр матрицы формата : Default (H.263)
Идентификатор кодека : XVID
Идентификатор кодека/Подсказка : XviD
Продолжительность : 1 ч. 31 м.
Битрейт : 2028 Кбит/сек
Ширина : 640 пикселей
Высота : 480 пикселей
Соотношение сторон : 4:3
Частота кадров : 25,000 кадров/сек
Цветовое пространство : YUV
Субдискретизация насыщенности : 4:2:0
Битовая глубина : 8 бит
Тип развёртки : Прогрессивная
Метод сжатия : С потерями
Бит/(Пиксели*Кадры) : 0.264
Размер потока : 1,29 Гбайт (88%)
Библиотека кодирования : XviD 1.2.1 (UTC 2008-12-04)

Аудио
Идентификатор : 1
Формат : AC-3
Формат/Информация : Audio Coding 3
Расширение режима : CM (complete main)
Параметр Endianness формата : Big
Идентификатор кодека : 2000
Продолжительность : 1 ч. 31 м.
Вид битрейта : Постоянный
Битрейт : 256 Кбит/сек
Каналы : 2 канала
Расположение каналов : Front: L R
Частота : 48,0 КГц
Битовая глубина : 16 бит
Метод сжатия : С потерями
Размер потока : 167 Мбайт (11%)
Выравнивание : Разделение по промежуткам
Продолжительность промежутка : 40 мс. (1,00 видеокадр)
Время предзагрузки промежутка : 500 мс.

Релиз от:


_________________



реклама партнёра


Вернуться к началу
 Профиль Отправить личное сообщение  
 
   Похожие торренты   Автор   Торрент   Размер 
В этой теме нет новых непрочитанных сообщений. Ярость / The Rage [Боевик, триллер, 1997] DVDRip, Avo

salma3

29 | 2

1.48 ГБ

В этой теме нет новых непрочитанных сообщений. Честь и ярость 2: Враждебный захват / Rage and Honor II [боевик, триллер, драма, криминал, 1993] DVDRip, Mvo [Первый канал]

salma3

79 | 23

1.46 ГБ

В этой теме нет новых непрочитанных сообщений. Честь и ярость 2: Враждебный захват / Rage And Honor 2: Hostile Takeover [боевик, боевые искусства, 1993] DVD5, Avo

salma3

23 | 24

4.14 ГБ

В этой теме нет новых непрочитанных сообщений. Ярость зверя / Rage, furia primitiva [ужасы, фантастика, триллер, 1988] DVDRip, Avo

salma3

23 | 5

1.49 ГБ

В этой теме нет новых непрочитанных сообщений. Ярость / The Rage [Ужасы, 2007] DVD9, Mvo+Sub

salma3

8 | 4

7.55 ГБ

В этой теме нет новых непрочитанных сообщений. Гнев Йети / Ярость Йети / Rage Of The Yeti [ужасы, 2011] DVDRip, mvo

salma3

169 | 22

716.04 МБ

В этой теме нет новых непрочитанных сообщений. Ярость / Tevar [боевик, триллер, драма, 2015] DVDRip, Dvo+Sub

salma3

16 | 5

1.39 ГБ


Начать новую тему Ответить на тему  [ 1 сообщение ] 




Для Мосгорсуда, Роскомнадзора и рекламодателей:: mosgorsud-torrent[собачка]yandex.ru