Торрент файл
скачать торрент магнет ссылка Добавлен: 03 июл 2014, 12:58
Размер: 1.45 ГБ
Сидеров: 34
Личеров: 11
Статус: (salma3)
Автор

СообщениеДобавлено: 03 июл 2014, 12:58 

Не в сети
Супермодератор
Аватара пользователя
Дата регистрации:
15 фев 2012, 16:44
Возраст: 27
Спасибо: 5143 / 2090
Сообщения: 17478
Дикая река / The River Wild

Год выпуска: 1994
Жанр: триллер, криминал, приключения
Режиссер: Кёртис Хэнсон

В ролях: Мэрил Стрип, Кевин Бейкон, Дэвид Стрэтэйрн, Джозеф Маццелло, Джон Си Райли, Бенджамин Брэтт, Элизабет Хоффман, Уильям Лаккинг, Стефани Сойер, Виктор Гэллоуэй

Описание: Нельзя сказать, что Гейл счастлива в браке: они с мужем на грани развода. Но однажды она принимает судьбоносное для семьи решение: отправиться в путешествие по бурной реке, знакомой ей с молодых лет. Семейные дрязги отходят на второй план, когда куда большую опасность, чем дикая вода, начинают представлять люди, оказавшиеся рядом.



Страна: США
Продолжительность: 01:51:29
Перевод: Профессиональный (многоголосый закадровый)
субтитры: русские, английские

Файл
Качество: BDRip-AVC
Формат файла: MKV
Видео кодек: H.264
Аудио кодек: AC3
Видео: 1024x434 (2.35:1), 23.976 fps, AVC (H.264), High@L4.1 ~1419 kbps, 0.133 bit/pixel
Аудио: 48 kHz, AC3 Dolby Digital, 3/2 (L,C,R,l,r) + LFE ch, ~384 kbps

Общее
Полное имя : Dikaya.reka.1994.BDRip-AVC_[New-team]_by_AVP_Studio.mkv
Формат : Matroska
Версия формата : Version 4 / Version 2
Размер файла : 1,45 Гбайт
Продолжительность : 1 ч. 51 м.
Общий поток : 1868 Кбит/сек
Название фильма : Dikaya.reka.1994.BDRip-AVC_[New-team]_by_AVP_Studio
Дата кодирования : UTC 2014-06-25 07:52:34
Программа кодирования : mkvmerge v6.9.1 ('Blue Panther') 64bit built on Apr 18 2014 18:23:38
Библиотека кодирования : libebml v1.3.0 + libmatroska v1.4.1

Видео
Идентификатор : 1
Формат : AVC
Формат/Информация : Advanced Video Codec
Профиль формата : High@L4.1
Параметр CABAC формата : Да
Параметр ReFrames формата : 8 кадров
Идентификатор кодека : V_MPEG4/ISO/AVC
Продолжительность : 1 ч. 51 м.
Битрейт : 1419 Кбит/сек
Ширина : 1024 пикселя
Высота : 434 пикселя
Соотношение сторон : 2,35:1
Режим частоты кадров : Постоянный
Частота кадров : 23,976 кадра/сек
Цветовое пространство : YUV
Субдискретизация насыщенности : 4:2:0
Битовая глубина : 8 бит
Тип развёртки : Прогрессивная
Бит/(Пиксели*Кадры) : 0.133
Размер потока : 1,08 Гбайт (74%)
Заголовок : Источник BDRemux
Библиотека кодирования : x264 core 138 r2356 a1d3d17
Настройки программы : cabac=1 / ref=8 / deblock=1:-3:-2 / analyse=0x3:0x113 / me=umh / subme=10 / psy=1 / psy_rd=1.00:0.05 / mixed_ref=1 / me_range=32 / chroma_me=1 / trellis=2 / 8x8dct=1 / cqm=0 / deadzone=21,11 / fast_pskip=0 / chroma_qp_offset=-3 / threads=6 / lookahead_threads=1 / sliced_threads=0 / nr=0 / decimate=0 / interlaced=0 / bluray_compat=0 / constrained_intra=0 / bframes=8 / b_pyramid=2 / b_adapt=2 / b_bias=0 / direct=3 / weightb=1 / open_gop=0 / weightp=2 / keyint=240 / keyint_min=24 / scenecut=40 / intra_refresh=0 / rc_lookahead=40 / rc=2pass / mbtree=1 / bitrate=1419 / ratetol=1.0 / qcomp=0.60 / qpmin=0 / qpmax=69 / qpstep=4 / cplxblur=20.0 / qblur=0.5 / ip_ratio=1.40 / aq=1:1.00
Язык : English
Default : Да
Forced : Нет

Аудио
Идентификатор : 2
Формат : AC-3
Формат/Информация : Audio Coding 3
Расширение режима : CM (complete main)
Параметр Endianness формата : Big
Идентификатор кодека : A_AC3
Продолжительность : 1 ч. 51 м.
Вид битрейта : Постоянный
Битрейт : 448 Кбит/сек
Каналы : 6 каналов
Расположение каналов : Front: L C R, Side: L R, LFE
Частота : 48,0 КГц
Битовая глубина : 16 бит
Метод сжатия : С потерями
Размер потока : 357 Мбайт (24%)
Заголовок : Источник BDRemux Dolby Digital 5,1 448kb
Язык : Russian
Default : Да
Forced : Нет

Текст #1
Идентификатор : 3
Формат : UTF-8
Идентификатор кодека : S_TEXT/UTF8
Идентификатор кодека/Информация : UTF-8 Plain Text
Заголовок : Источник BDRemux SoftSub (srt)
Язык : Russian
Default : Нет
Forced : Нет

Текст #2
Идентификатор : 4
Формат : UTF-8
Идентификатор кодека : S_TEXT/UTF8
Идентификатор кодека/Информация : UTF-8 Plain Text
Заголовок : Источник BDRemux SoftSub (srt)
Язык : English
Default : Нет
Forced : Нет

Меню
00:00:00.000 : en:1. Main Titles: Reflections on the Charles
00:07:19.481 : en:2. Wade
00:10:34.175 : en:3. Three on a Raft
00:22:46.907 : en:4. Our First Whoop-Dee-Doo
00:24:33.263 : en:5. Wade in the Water
00:33:44.105 : en:6. The Birthday Present
00:40:26.299 : en:7. Going With My Friends
00:47:22.465 : en:8. I Need Your Wife...
00:57:27.653 : en:9. Ranger Johnny
01:06:46.544 : en:10. Pursued
01:21:06.278 : en:11. Little Niagra
01:28:06.239 : en:12. No Stopping and No Turning Back
01:34:24.742 : en:13. The River Wild
01:41:05.142 : en:14. The Trap
01:43:05.262 : en:15. There's No Way...
01:47:13.719 : en:16. End Titles: "The Water Is Wide" (Cowboy Junkies)


_________________



реклама партнёра


Вернуться к началу
 Профиль Отправить личное сообщение  
 
   Похожие торренты   Автор   Торрент   Размер 
В этой теме нет новых непрочитанных сообщений. Дикая река / The River Wild [Триллер, криминал, приключения, боевик, 1994] BDRip 720p, 2Mvo+2Avo+Sub

salma3

27 | 3

7.17 ГБ

В этой теме нет новых непрочитанных сообщений. Река смерти / River Of Death [Боевик, приключения, 1989] BDRip, Avo

salma3

1 | 0

1.46 ГБ

В этой теме нет новых непрочитанных сообщений. Дикая штучка / Wild Target [Боевик, комедия, драма, криминал, 2010] BDRip-AVC, Mvo+Sub [Лицензия]

salma3

254 | 11

2.18 ГБ

В этой теме нет новых непрочитанных сообщений. Река смерти / River of Death [боевик, приключения, 1989] HDTVRip, Mvo [канал 2х2]

salma3

26 | 5

1.43 ГБ

В этой теме нет новых непрочитанных сообщений. Дикая штучка / Something Wild [комедия, 1986] BDRip 720p, Dvo+Avo+Sub

salma3

69 | 22

4.74 ГБ

В этой теме нет новых непрочитанных сообщений. Дикая банда / Deuces Wild [драма, криминал, 2002] DVDRip, Mvo

salma3

78 | 8

748.47 МБ

В этой теме нет новых непрочитанных сообщений. Дикая / Wild (Жан-Марк Валле) [2014, Драма, биография, BDRip] Sub

Nickolas3435

577 | 115

1.49 ГБ


Начать новую тему Ответить на тему  [ 1 сообщение ] 




Для Мосгорсуда, Роскомнадзора и рекламодателей:: mosgorsud-torrent[собачка]yandex.ru