Торрент файл
скачать торрент магнет ссылка Добавлен: 01 июл 2014, 15:54
Размер: 1.23 ГБ
Сидеров: 5
Личеров: 2
Статус: (salma3)
Автор

СообщениеДобавлено: 01 июл 2014, 15:54 

Не в сети
Супермодератор
Аватара пользователя
Дата регистрации:
15 фев 2012, 16:44
Возраст: 27
Спасибо: 5121 / 2089
Сообщения: 17342
Араукана / Последнее сражение инков / La araucana

Год выпуска: 1971
Жанр: приключения, драма, история
Режиссер: Хулио Коль

В ролях: Эльза Мартинелли, Венантино Венантини, Виктор Алькасар, Хулио Пенья, Бени Деус, Маноло Отеро, Рикардо Паласиос, Альберто Дальбес, Эрика Лопес, Пепе Мартин

Описание:
Летом 1540 при Императоре Карле V, в Куско, из похода на юг, возвращается дон Педро де Вальдивия с пятью израненными солдатами. Они — единственные оставшиеся в живых. Несколько дней спустя, оправившись от ран, Педро де Вальдивия решает предпринять новую попытку завоевания Чили.



Страны: Чили, Италия, Испания, Перу
Продолжительность: 01:36:21
Перевод: Любительский (одноголосый)

Файл
Качество: DVDRip
Формат файла: AVI
Видео кодек: XviD
Аудио кодек: AC3 / МР3
Видео: 656x304 (2.20:1), 25.000 fps, MPEG-4 XviD ~1426 kbps, 0.286 bit/pixel
Аудио#1: Русский: 48 kHz, AC3 2 ch, Front: L R ~192 kbps [Любительский одноголосый]
Аудио#2: Испанский:48 kHz, МР3, 2 ch, ~192 kbps [Оригинал]

Общее
Полное имя : D:\Movies\La_Araucana.avi
Формат : AVI
Формат/Информация : Audio Video Interleave
Размер файла : 1,23 Гбайт
Продолжительность : 1 ч. 36 м.
Общий поток : 1824 Кбит/сек
Программа кодирования : VirtualDubModRus 1.5.10.2 (build 2542/release)
Библиотека кодирования : VirtualDubMod build 2542/release

Видео
Идентификатор : 0
Формат : MPEG-4 Visual
Профиль формата : Advanced Simple@L5
Параметр BVOP формата : 1
Параметр QPel формата : Нет
Параметр GMC формата : Без точки перехода
Параметр матрицы формата : Выборочная
Идентификатор кодека : XVID
Идентификатор кодека/Подсказка : XviD
Продолжительность : 1 ч. 36 м.
Битрейт : 1426 Кбит/сек
Ширина : 656 пикселей
Высота : 304 пикселя
Соотношение сторон : 2,2:1
Частота кадров : 25,000 кадров/сек
Цветовое пространство : YUV
Субдискретизация насыщенности : 4:2:0
Битовая глубина : 8 бит
Тип развёртки : Прогрессивная
Метод сжатия : С потерями
Бит/(Пиксели*Кадры) : 0.286
Размер потока : 983 Мбайт (78%)
Библиотека кодирования : XviD 1.2.0.dev47 (UTC 2006-11-01)

Аудио #1
Идентификатор : 1
Формат : AC-3
Формат/Информация : Audio Coding 3
Расширение режима : CM (complete main)
Параметр Endianness формата : Big
Идентификатор кодека : 2000
Продолжительность : 1 ч. 36 м.
Вид битрейта : Постоянный
Битрейт : 192 Кбит/сек
Каналы : 2 канала
Расположение каналов : Front: L R
Частота : 48,0 КГц
Битовая глубина : 16 бит
Метод сжатия : С потерями
Размер потока : 132 Мбайт (11%)
Выравнивание : Разделение по промежуткам
Продолжительность промежутка : 40 мс. (1,00 видеокадр)
Время предзагрузки промежутка : 500 мс.
Язык : Espanol

Аудио #2
Идентификатор : 2
Формат : MPEG Audio
Версия формата : Version 1
Профиль формата : Layer 3
Режим : Joint stereo
Расширение режима : MS Stereo
Идентификатор кодека : 55
Идентификатор кодека/Подсказка : MP3
Продолжительность : 1 ч. 36 м.
Вид битрейта : Постоянный
Битрейт : 192 Кбит/сек
Каналы : 2 канала
Частота : 48,0 КГц
Метод сжатия : С потерями
Размер потока : 132 Мбайт (11%)
Выравнивание : Соединение по промежуткам
Продолжительность промежутка : 40 мс. (1,00 видеокадр)
Время предзагрузки промежутка : 504 мс.
Библиотека кодирования : LAME3.97
Настройки программы : -m j -V 4 -q 2 -lowpass 18.6 -b 192


_________________



реклама партнёра


Вернуться к началу
 Профиль Отправить личное сообщение  
 
   Похожие торренты   Автор   Торрент   Размер 
В этой теме нет новых непрочитанных сообщений. Последнее королевство / The Last Kingdom [S01] (Энтони Бирн и Бен Чанан) [2015, История, боевик, драма, HDTVRip | Victory-Films]

Dracon

813 | 674

4.89 ГБ

В этой теме нет новых непрочитанных сообщений. Последнее королевство / The Last Kingdom [01x01-08 из 08] (Энтони Бирн и Бен Чанан) [2015, История, боевик, драма, HDTVRip 720p | Victory-Films]

Dracon

16 | 28

10.61 ГБ

В этой теме нет новых непрочитанных сообщений. Макбет / The Tragedy of Macbeth [драма, военный, биография, история, 1971] BDRip, Mvo

salma3

21 | 1

1.45 ГБ

В этой теме нет новых непрочитанных сообщений. Последнее пророчество / The Garden [Ужасы, триллер, драма, 2006] DVDRip-AVC, Mvo

salma3

57 | 2

1.59 ГБ

В этой теме нет новых непрочитанных сообщений. Чернобыль: Последнее предупреждение / Chernobyl: The Final Warning [драма, 1991] DVDRip, Dub

salma3

328 | 58

744.1 МБ

В этой теме нет новых непрочитанных сообщений. Сражение у горы Гасфорта (Россия) [Бокс, 2015] SATRip

Dracon

143 | 56

3.61 ГБ

В этой теме нет новых непрочитанных сообщений. Мохенджо Даро / Mohenjo Daro [боевик, драма, мелодрама, приключения, история, 2016] DVDRip, Mvo

salma3

46 | 24

1.46 ГБ


Начать новую тему Ответить на тему  [ 1 сообщение ] 




Для Мосгорсуда, Роскомнадзора и рекламодателей:: mosgorsud-torrent[собачка]yandex.ru