Торрент файл
скачать торрент магнет ссылка Добавлен: 01 июл 2014, 14:28
Размер: 1.41 ГБ
Сидеров: 13
Личеров: 3
Статус: (salma3)
Автор

СообщениеДобавлено: 01 июл 2014, 14:28 

Не в сети
Супермодератор
Аватара пользователя
Дата регистрации:
15 фев 2012, 16:44
Возраст: 27
Спасибо: 5130 / 2089
Сообщения: 17350
Бар «Гадкий койот» / Coyote Ugly

Год выпуска: 2000
Жанр: драма, мелодрама, комедия, музыка
Режиссер: Дэвид МакНалли / David McNally

В ролях: Пайпер Перабо, Адам Гарсиа, Джон Гудман, Мария Белло, Изабелла Мико, Тайра Бэнкс, Бриджет Мойнэан, Мелани Лински, Дел Пентекост, Майкл Уэстон, ЛиЭнн Раймс, Джереми Роули

Описание:
Вайолет всю жизнь прожила на окраине и мечтала стать певицей. Но ее никогда не покидал страх перед освещенной сценой и шумной толпой. Наконец, мечта привела ее в Нью-Йорк, где Вайолет устроилась на работу официанткой в знаменитый бар "Гадкий Койот", где правят бал только красивые и решительные.
В обществе неотразимых красавиц, чьи манеры пугают ханжей и привлекают мужчин, Вайолет должна преодолеть природную застенчивость и услышать собственный голос.



Страна: США
Продолжительность: 01:40:47
Перевод: Профессиональный [полное дублирование] [Лицензия]

Файл
Качество: HDRip
Формат файла: AVI
Видео кодек: XviD
Аудио кодек: AC3
Видео: 720x304 (2.37:1), 23.976 fps, XviD build 73 ~1599 kbps avg, 0.30 bit/pixel
Аудио 1: Русский: 48 kHz, AC3 Dolby Digital, 2/0 (L,R) ch, ~192.00 kbps avg [полное дублирование]
Аудио 2: Русский: 48 kHz, AC3 Dolby Digital, 2/0 (L,R) ch, ~192.00 kbps avg [Авторский одноголосый] [Живов]

Из фильма вырезали полную секс-сцену Пайпер Перабо и Адама Гарсия.
Популярность фильма породила идею открыть реальный бар «Гадкий койот». Интерьер, музыка, дресс-код и поведение барменов в котором соответствовали бы стилю фильма. Сейчас бары «Гадкий койот» есть в США, Германии и России.
Основой для фильма послужила автобиографическая статья Элизабет Гилберт «Муза салона Гадкий койот» («The Muse of the Coyote Ugly Saloon») для журнала GQ, опубликованная в 1997 году и повествующая о временах, когда она работала в первом танцевальном баре «Гадкий койот» в Ист-Виллидж.

General
Complete name : E:\Фильмы\Бар Гадкий койот.2000.HDRip.Dub+Avo.[tfile.ru].avi
Format : AVI
Format/Info : Audio Video Interleave
File size : 1.41 GiB
Duration : 1h 40mn
Overall bit rate : 1 998 Kbps
Writing application : VirtualDubMod 1.5.10.2 (build 2540/release)
Writing library : VirtualDubMod build 2540/release

Video
ID : 0
Format : MPEG-4 Visual
Format profile : Advanced Simple@L5
Format settings, BVOP : 1
Format settings, QPel : No
Format settings, GMC : No warppoints
Format settings, Matrix : Custom
Codec ID : XVID
Codec ID/Hint : XviD
Duration : 1h 40mn
Bit rate : 1 600 Kbps
Width : 720 pixels
Height : 304 pixels
Display aspect ratio : 2.35:1
Frame rate : 23.976 fps
Color space : YUV
Chroma subsampling : 4:2:0
Bit depth : 8 bits
Scan type : Progressive
Compression mode : Lossy
Bits/(Pixel*Frame) : 0.305
Stream size : 1.13 GiB (80%)
Writing library : XviD 73

Audio #1
ID : 1
Format : AC-3
Format/Info : Audio Coding 3
Mode extension : CM (complete main)
Codec ID : 2000
Duration : 1h 40mn
Bit rate mode : Constant
Bit rate : 192 Kbps
Channel(s) : 2 channels
Channel positions : Front: L R
Sampling rate : 48.0 KHz
Bit depth : 16 bits
Compression mode : Lossy
Stream size : 138 MiB (10%)
Alignment : Split accross interleaves
Interleave, duration : 42 ms (1.00 video frame)
Interleave, preload duration : 500 ms

Audio #2
ID : 2
Format : AC-3
Format/Info : Audio Coding 3
Mode extension : CM (complete main)
Codec ID : 2000
Duration : 1h 40mn
Bit rate mode : Constant
Bit rate : 192 Kbps
Channel(s) : 2 channels
Channel positions : Front: L R
Sampling rate : 48.0 KHz
Bit depth : 16 bits
Compression mode : Lossy
Stream size : 138 MiB (10%)
Alignment : Aligned on interleaves
Interleave, duration : 42 ms (1.00 video frame)
Interleave, preload duration : 512 ms



_________________



реклама партнёра


Вернуться к началу
 Профиль Отправить личное сообщение  
 
   Похожие торренты   Автор   Торрент   Размер 
В этой теме нет новых непрочитанных сообщений. В одно прекрасное лето / Лето на ранчо Койот / Coyote Summer [мелодрама, приключения, семейный, 1995] DVDRip, Avo

salma3

25 | 7

1.46 ГБ

В этой теме нет новых непрочитанных сообщений. Гадкий / Ugly [триллер, детектив, 2013] BDRip, Dvo

salma3

2 | 5

1.41 ГБ

В этой теме нет новых непрочитанных сообщений. Фанатик / High Fidelity [драма, мелодрама, комедия, музыка, 2000] BDRip 1080p, Mvo+2Dvo+Sub

salma3

20 | 1

14.9 ГБ

В этой теме нет новых непрочитанных сообщений. Хоть раз в жизни / Begin Again [Драма, мелодрама, комедия, музыка, 2014] BDRip 1080p, Dub [Лицензия]

Dracon

337 | 21

8.42 ГБ

В этой теме нет новых непрочитанных сообщений. Хоть раз в жизни / Begin Again [Драма, мелодрама, комедия, музыка, 2014] BDRip 720p, Dub [Лицензия]

Dracon

636 | 31

5.71 ГБ

В этой теме нет новых непрочитанных сообщений. О, где же ты, брат? / O Brother, Where Art Thou? [комедия, криминал, музыка, 2000] HDRip, Dub

salma3

106 | 14

1.45 ГБ

В этой теме нет новых непрочитанных сообщений. Братья Блюз 2000 / Blues Brothers 2000 [боевик, комедия, криминал, музыка, 1998] Blu-ray 1080p, Mvo+Sub

salma3

11 | 7

35.86 ГБ


Начать новую тему Ответить на тему  [ 1 сообщение ] 




Для Мосгорсуда, Роскомнадзора и рекламодателей:: mosgorsud-torrent[собачка]yandex.ru