Торрент файл
скачать торрент магнет ссылка Добавлен: 01 июл 2014, 14:19
Размер: 2.91 ГБ
Сидеров: 47
Личеров: 14
Автор

СообщениеДобавлено: 01 июл 2014, 14:19 

Не в сети
Супермодератор
Аватара пользователя
Дата регистрации:
15 фев 2012, 16:44
Возраст: 27
Спасибо: 5143 / 2090
Сообщения: 17478
Смертельное оружие 4 / Lethal Weapon 4

Год выпуска: 1998
Жанр: боевик, триллер, криминал
Режиссер: Ричард Доннер / Richard Donner

В ролях:
Мэл Гибсон (Martin Riggs), Дэнни Гловер (Roger Murtaugh), Джет Ли (Wah Sing Ku), Джо Пеши (Leo Getz), Рене Руссо (Lorna Cole), Крис Рок (Detective Lee Butters), Стив Кэхэн (Captain Ed Murphy), Ким Чан (Benny «Uncle Benny» Chan), Дарлин Лав (Trish Murtaugh), Трэйси Вульф (Rianne Murtaugh Butters), Эдди Ко (Hong, Chinese Refugee), Джек Келер (State Department Man)...

Описание:
Главный герой Риггз ждет, как он надеется, сына от Лорны Коул, а Роджер — внука. Оба уже ощущают возраст, им дали звания капитанов, но сердца их все еще молоды и без приключений не могут. В этом 4-м по счету фильме их дорожки случайно пересеклись с китайскими мафиози, печатающими фальшивые деньги. В фильме есть юмор, множество перестрелок, драк, погонь, головокружительных трюков. Взрываются бензовозы, машины, корабли садятся на мель, Джет Ли показывает свое мастерство в восточных единоборствах…




Страна: США
Продолжительность: 02:07:23
Перевод1: Профессиональный (полное дублирование) Мост видео, Варус Видео
Перевод2: Профессиональный (многоголосый, закадровый) РТР,
Перевод3:Авторский (одноголосый закадровый) Юрий Живов, Андрей Гаврилов
Оригинальная аудиодорожка: английский
Cубтитры: русский

Файл
Качество: BDRip-AVC
Формат файла: AVI
Видео кодек: XviD
Аудио кодек: AC3
Видео: 1024x426 (2,40:1), 23,976 fps, H264 ~ 1601 kbps avg, 0.153 bit/pixel
Аудио: 48 kHz, Dolby Digital AC3 5.1, 448 kbps [DUB Мост видео]
Аудио: 48 kHz, Dolby Digital AC3 2.0, 192 kbps [DUB Варус Видео]
Аудио: 48 kHz, Dolby Digital AC3 2.0, 192 kbps [MVO РТР]
Аудио: 48 kHz, Dolby Digital AC3 2.0, 192 kbps [AVO Живов]
Аудио: 48 kHz, Dolby Digital AC3 2.0, 192 kbps [AVO Гаврилов]
Аудио: 48 kHz, Dolby Digital AC3 5.1, 448 kbps [Английский]
Оригинальная навигация по главам: есть
Субтитры: SoftSub (srt)

Общее
Полное имя : Смертельное.оружие.4.1998.BDRip-AVC_[New-team]_by_AVP_Studio.mkv
Формат : Matroska
Версия формата : Version 4 / Version 2
Размер файла : 2,91 Гбайт
Продолжительность : 2 ч. 7 м.
Общий поток : 3268 Кбит/сек
Название фильма : Смертельное.оружие.4.1998.BDRip-AVC_[New-team]_by_AVP_Studio
Дата кодирования : UTC 2014-07-01 08:41:05
Программа кодирования : mkvmerge v6.9.1 ('Blue Panther') 64bit built on Apr 18 2014 18:23:38
Библиотека кодирования : libebml v1.3.0 + libmatroska v1.4.1

Видео
Идентификатор : 1
Формат : AVC
Формат/Информация : Advanced Video Codec
Профиль формата : High@L4.1
Параметр CABAC формата : Да
Параметр ReFrames формата : 8 кадров
Идентификатор кодека : V_MPEG4/ISO/AVC
Продолжительность : 2 ч. 7 м.
Битрейт : 1601 Кбит/сек
Ширина : 1024 пикселя
Высота : 426 пикселей
Соотношение сторон : 2,40:1
Режим частоты кадров : Постоянный
Частота кадров : 23,976 кадра/сек
Цветовое пространство : YUV
Субдискретизация насыщенности : 4:2:0
Битовая глубина : 8 бит
Тип развёртки : Прогрессивная
Бит/(Пиксели*Кадры) : 0.153
Размер потока : 1,37 Гбайт (47%)
Заголовок : Источник BDRemux
Библиотека кодирования : x264 core 138 r2356 a1d3d17
Настройки программы : cabac=1 / ref=8 / deblock=1:-3:-2 / analyse=0x3:0x113 / me=umh / subme=10 / psy=1 / psy_rd=1.00:0.05 / mixed_ref=1 / me_range=32 / chroma_me=1 / trellis=2 / 8x8dct=1 / cqm=0 / deadzone=21,11 / fast_pskip=0 / chroma_qp_offset=-3 / threads=6 / lookahead_threads=1 / sliced_threads=0 / nr=0 / decimate=0 / interlaced=0 / bluray_compat=0 / constrained_intra=0 / bframes=8 / b_pyramid=2 / b_adapt=2 / b_bias=0 / direct=3 / weightb=1 / open_gop=0 / weightp=2 / keyint=240 / keyint_min=24 / scenecut=40 / intra_refresh=0 / rc_lookahead=40 / rc=2pass / mbtree=1 / bitrate=1601 / ratetol=1.0 / qcomp=0.60 / qpmin=0 / qpmax=69 / qpstep=4 / cplxblur=20.0 / qblur=0.5 / ip_ratio=1.40 / aq=1:1.00
Язык : English
Default : Да
Forced : Нет

Аудио #1
Идентификатор : 2
Формат : AC-3
Формат/Информация : Audio Coding 3
Расширение режима : CM (complete main)
Параметр Endianness формата : Big
Идентификатор кодека : A_AC3
Продолжительность : 2 ч. 7 м.
Вид битрейта : Постоянный
Битрейт : 448 Кбит/сек
Каналы : 6 каналов
Расположение каналов : Front: L C R, Side: L R, LFE
Частота : 48,0 КГц
Битовая глубина : 16 бит
Метод сжатия : С потерями
Размер потока : 408 Мбайт (14%)
Заголовок : Источник BDRemux Dolby Digital 5,1 448 kbps DUB-Мост видео
Язык : Russian
Default : Да
Forced : Нет

Аудио #2
Идентификатор : 3
Формат : AC-3
Формат/Информация : Audio Coding 3
Расширение режима : CM (complete main)
Параметр Endianness формата : Big
Идентификатор кодека : A_AC3
Продолжительность : 2 ч. 7 м.
Вид битрейта : Постоянный
Битрейт : 192 Кбит/сек
Каналы : 2 канала
Расположение каналов : Front: L R
Частота : 48,0 КГц
Битовая глубина : 16 бит
Метод сжатия : С потерями
Размер потока : 175 Мбайт (6%)
Заголовок : Источник BDRemux Dolby Digital 5,1 448 kbps DUB-Варус-Bидео
Язык : Russian
Default : Нет
Forced : Нет

Аудио #3
Идентификатор : 4
Формат : AC-3
Формат/Информация : Audio Coding 3
Расширение режима : CM (complete main)
Параметр Endianness формата : Big
Идентификатор кодека : A_AC3
Продолжительность : 2 ч. 7 м.
Вид битрейта : Постоянный
Битрейт : 192 Кбит/сек
Каналы : 2 канала
Расположение каналов : Front: L R
Частота : 44,1 КГц
Битовая глубина : 16 бит
Метод сжатия : С потерями
Размер потока : 175 Мбайт (6%)
Заголовок : Источник BDRemux Digital 2,0 192 kbps MVO-РТР
Язык : Russian
Default : Нет
Forced : Нет

Аудио #4
Идентификатор : 5
Формат : AC-3
Формат/Информация : Audio Coding 3
Расширение режима : CM (complete main)
Параметр Endianness формата : Big
Идентификатор кодека : A_AC3
Продолжительность : 2 ч. 7 м.
Вид битрейта : Постоянный
Битрейт : 192 Кбит/сек
Каналы : 2 канала
Расположение каналов : Front: L R
Частота : 48,0 КГц
Битовая глубина : 16 бит
Метод сжатия : С потерями
Размер потока : 175 Мбайт (6%)
Заголовок : Источник BDRemux Digital 2,0 192 kbps Живов
Язык : Russian
Default : Нет
Forced : Нет

Аудио #5
Идентификатор : 6
Формат : AC-3
Формат/Информация : Audio Coding 3
Расширение режима : CM (complete main)
Параметр Endianness формата : Big
Идентификатор кодека : A_AC3
Продолжительность : 2 ч. 7 м.
Вид битрейта : Постоянный
Битрейт : 192 Кбит/сек
Каналы : 2 канала
Расположение каналов : Front: L R
Частота : 48,0 КГц
Битовая глубина : 16 бит
Метод сжатия : С потерями
Размер потока : 175 Мбайт (6%)
Заголовок : Источник BDRemux Digital 2,0 192 kbps Гаврилов
Язык : Russian
Default : Нет
Forced : Нет

Аудио #6
Идентификатор : 7
Формат : AC-3
Формат/Информация : Audio Coding 3
Расширение режима : CM (complete main)
Параметр Endianness формата : Big
Идентификатор кодека : A_AC3
Продолжительность : 2 ч. 7 м.
Вид битрейта : Постоянный
Битрейт : 448 Кбит/сек
Каналы : 6 каналов
Расположение каналов : Front: L C R, Side: L R, LFE
Частота : 48,0 КГц
Битовая глубина : 16 бит
Метод сжатия : С потерями
Размер потока : 408 Мбайт (14%)
Заголовок : Источник BDRemux Dolby Digital 5,1 448 kbps
Язык : English
Default : Нет
Forced : Нет

Текст
Идентификатор : 8
Формат : UTF-8
Идентификатор кодека : S_TEXT/UTF8
Идентификатор кодека/Информация : UTF-8 Plain Text
Заголовок : Источник BDRemux SoftSub (srt)
Язык : Russian
Default : Нет
Forced : Нет

Меню
00:00:00.000 : ru:Эпизод 01
00:01:52.195 : ru:Эпизод 02
00:03:51.606 : ru:Эпизод 03
00:05:54.604 : ru:Эпизод 04
00:09:47.587 : ru:Эпизод 05
00:13:40.110 : ru:Эпизод 06
00:15:31.930 : ru:Эпизод 07
00:17:28.964 : ru:Эпизод 08
00:20:32.439 : ru:Эпизод 09
00:21:55.355 : ru:Эпизод 10
00:25:28.109 : ru:Эпизод 11
00:27:50.293 : ru:Эпизод 12
00:32:20.480 : ru:Эпизод 13
00:35:42.515 : ru:Эпизод 14
00:38:17.962 : ru:Эпизод 15
00:40:15.413 : ru:Эпизод 16
00:43:04.123 : ru:Эпизод 17
00:46:27.868 : ru:Эпизод 18
00:49:28.507 : ru:Эпизод 19
00:51:19.659 : ru:Эпизод 20
00:52:14.965 : ru:Эпизод 21
00:55:53.808 : ru:Эпизод 22
00:58:45.396 : ru:Эпизод 23
01:02:42.675 : ru:Эпизод 24
01:06:32.780 : ru:Эпизод 25
01:09:36.463 : ru:Эпизод 26
01:11:34.206 : ru:Эпизод 27
01:13:44.503 : ru:Эпизод 28
01:15:37.449 : ru:Эпизод 29
01:17:28.018 : ru:Эпизод 30
01:20:01.505 : ru:Эпизод 31
01:22:38.453 : ru:Эпизод 32
01:27:29.202 : ru:Эпизод 33
01:31:05.918 : ru:Эпизод 34
01:33:03.035 : ru:Эпизод 35
01:35:37.106 : ru:Эпизод 36
01:38:03.919 : ru:Эпизод 37
01:40:33.610 : ru:Эпизод 38
01:43:51.475 : ru:Эпизод 39
01:46:22.667 : ru:Эпизод 40
01:47:29.985 : ru:Эпизод 41
01:50:10.604 : ru:Эпизод 42
01:53:53.368 : ru:Эпизод 43
01:58:03.117 : ru:Эпизод 44
02:00:15.208 : ru:Эпизод 45


Раздача от:


_________________



реклама партнёра


Вернуться к началу
 Профиль Отправить личное сообщение  
 
   Похожие торренты   Автор   Торрент   Размер 
В этой теме нет новых непрочитанных сообщений. Смертельное оружие / Lethal Weapon / 1 сезон 1-8 серии из 18 [боевик, триллер, драма, криминал, 2016] WEB-DLRip, Mvo [LostFilm]

salma3

104 | 197

6.81 ГБ

В этой теме нет новых непрочитанных сообщений. Смертельное оружие / Lethal Weapon [01х01-01 из 13] [боевик, триллер, драма, криминал, 2016] WEBRip 1080p, Mvo [LostFilm]

marya111

0 | 0

3.93 ГБ

В этой теме нет новых непрочитанных сообщений. Смертельное Оружие / Lethal Weapon [01x01-06 из 13] (2016) HDTVRip 720p | Jetvis Studio

marya111

0 | 0

7.03 ГБ

В этой теме нет новых непрочитанных сообщений. Совершенное оружие / The Perfect Weapon [боевик, драма, 1991] BDRip, 2AVO

salma3

14 | 1

1.45 ГБ

В этой теме нет новых непрочитанных сообщений. Обнаженное оружие / Chek law dak gung / Naked Weapon [Боевик, триллер, 2002] BDRip, Mvo [КПК]

salma3

18 | 3

414.16 МБ

В этой теме нет новых непрочитанных сообщений. Меркурий в опасности / Mercury Rising [боевик, триллер, драма, криминал, 1998] BDRip, Dub+2Avo+Sub

salma3

34 | 5

1.46 ГБ

В этой теме нет новых непрочитанных сообщений. Обнаженное оружие / Chek law dak gung / Naked Weapon [Боевик, триллер, мелодрама, драма, 2002] BDRip 720р, Mvo+Sub

salma3

151 | 49

8.21 ГБ


Начать новую тему Ответить на тему  [ 1 сообщение ] 




Для Мосгорсуда, Роскомнадзора и рекламодателей:: mosgorsud-torrent[собачка]yandex.ru