Торрент файл
скачать торрент магнет ссылка Добавлен: 29 июн 2014, 20:30
Размер: 2.52 ГБ
Сидеров: 811
Личеров: 11
Статус: (Dracon)
Автор

СообщениеДобавлено: 29 июн 2014, 20:30 

Не в сети
Зам. Админа
Аватара пользователя
Дата регистрации:
02 дек 2010, 12:39
Спасибо: 12461 / 214
Сообщения: 27968
Год выпуска: 2014
Жанр: Криминал, триллер, боевик
Выпущено: Индонезия, Pt. Merantau Films, XYZ Films
Режиссер: Гарет Эванс
В ролях: Тио Пакусодево, Ока Антара, Дони Аламсях, Джули Эстелль, Яян Рухьян, Рюхэй Мацуда, Алекс Аббад, Арифин Путра, Сесеп Ариф Рахман, Ико Ювайс

О фильме: Из трех полицейских, выбравшихся из кровавого ада первой части, в живых остается только офицер Рама. Уволившись из спецназа, он пробует начать жизнь заново, но вскоре прошлое жестко напоминает о себе - преступники убивают его брата. Чтобы отомстить, он внедряется в мощный криминальный синдикат, где быстро поднимается до самых вершин бандитской иерархии. Врагов здесь еще больше, и каждый неверный шаг может оказаться последним. Здесь нет ни близких, ни друзей, ни любви, ни тоски, ни жалости!



Качество: HDRip (AVC)
Видео: MPEG-4 AVC, 1628 Кбит/с, 1024x426, 23.976 кадр/с
Аудио: Русский, английский (АС3, 6 ch, 384 Кбит/с)
Продолжительность: 02:30:28
Перевод: Дублированный | Чистый звук
Субтитры: Русские, английские

General
Unique ID : 250620249249076393430017382413337222283 (0xBC8BB44B078B7C3AA95B34361DE5DC8B)
Complete name : C:Reid.2.2014.D.HDRip.AVC.ExKinoRay.mkv
Format : Matroska
Format version : Version 2
File size : 2.52 GiB
Duration : 2h 30mn
Overall bit rate : 2 398 Kbps
Movie name : Reyd 2 2014 from ExkinoRay
Encoded date : UTC 2014-06-29 16:04:55
Writing application : mkvmerge v4.9.1 ('Ich will') built on Jul 11 2011 23:53:15
Writing library : libebml v1.2.1 + libmatroska v1.1.1

Video
ID : 1
Format : AVC
Format/Info : Advanced Video Codec
Format profile : High@L4.1
Format settings, CABAC : Yes
Format settings, ReFrames : 9 frames
Codec ID : V_MPEG4/ISO/AVC
Duration : 2h 30mn
Bit rate : 1 628 Kbps
Width : 1 024 pixels
Height : 426 pixels
Display aspect ratio : 2.40:1
Frame rate mode : Constant
Frame rate : 23.976 fps
Color space : YUV
Chroma subsampling : 4:2:0
Bit depth : 8 bits
Scan type : Progressive
Bits/(Pixel*Frame) : 0.156
Stream size : 1.66 GiB (66%)
Title : Enigma-Vladislav71
Writing library : x264 core 116 r2044 392e762
Encoding settings : cabac=1 / ref=9 / deblock=1:-3:-3 / analyse=0x3:0x113 / me=umh / subme=10 / psy=1 / psy_rd=1.00:0.20 / mixed_ref=1 / me_range=32 / chroma_me=1 / trellis=2 / 8x8dct=1 / cqm=0 / deadzone=21,11 / fast_pskip=0 / chroma_qp_offset=-3 / threads=12 / sliced_threads=0 / nr=0 / decimate=0 / interlaced=0 / bluray_compat=0 / constrained_intra=0 / bframes=9 / b_pyramid=2 / b_adapt=2 / b_bias=0 / direct=3 / weightb=1 / open_gop=0 / weightp=2 / keyint=240 / keyint_min=23 / scenecut=40 / intra_refresh=0 / rc=2pass / mbtree=0 / bitrate=1628 / ratetol=1.0 / qcomp=0.60 / qpmin=0 / qpmax=69 / qpstep=4 / cplxblur=20.0 / qblur=0.5 / ip_ratio=1.40 / pb_ratio=1.30 / aq=1:1.00
Default : Yes
Forced : No

Audio #1
ID : 2
Format : AC-3
Format/Info : Audio Coding 3
Mode extension : CM (complete main)
Format settings, Endianness : Big
Codec ID : A_AC3
Duration : 2h 30mn
Bit rate mode : Constant
Bit rate : 384 Kbps
Channel(s) : 6 channels
Channel positions : Front: L C R, Side: L R, LFE
Sampling rate : 48.0 KHz
Bit depth : 16 bits
Compression mode : Lossy
Stream size : 413 MiB (16%)
Title : DUB (Line)
Language : Russian
Default : Yes
Forced : No

Audio #2
ID : 3
Format : AC-3
Format/Info : Audio Coding 3
Mode extension : CM (complete main)
Format settings, Endianness : Big
Codec ID : A_AC3
Duration : 2h 30mn
Bit rate mode : Constant
Bit rate : 384 Kbps
Channel(s) : 6 channels
Channel positions : Front: L C R, Side: L R, LFE
Sampling rate : 48.0 KHz
Bit depth : 16 bits
Compression mode : Lossy
Stream size : 413 MiB (16%)
Language : English
Default : No
Forced : No

Text #1
ID : 4
Format : UTF-8
Codec ID : S_TEXT/UTF8
Codec ID/Info : UTF-8 Plain Text
Title : Матвеев
Language : Russian
Default : No
Forced : No

Text #2
ID : 5
Format : UTF-8
Codec ID : S_TEXT/UTF8
Codec ID/Info : UTF-8 Plain Text
Title : Forced
Language : English
Default : No
Forced : No

Menu
00:00:00.000 : en:00:00:00.000
00:08:02.315 : en:00:08:02.315
00:14:03.217 : en:00:14:03.217
00:21:08.893 : en:00:21:08.893
00:31:45.487 : en:00:31:45.487
00:42:22.123 : en:00:42:22.123
00:50:55.177 : en:00:50:55.177
01:01:58.423 : en:01:01:58.423
01:11:49.764 : en:01:11:49.764
01:24:47.165 : en:01:24:47.165
01:36:31.995 : en:01:36:31.995
01:44:18.752 : en:01:44:18.752
01:48:31.714 : en:01:48:31.714
01:57:20.283 : en:01:57:20.283
02:05:59.093 : en:02:05:59.093
02:20:02.894 : en:02:20:02.894





реклама партнёра


Вернуться к началу
 Профиль  
 
   Похожие торренты   Автор   Торрент   Размер 
В этой теме нет новых непрочитанных сообщений. Рейд 2 / The Raid 2: Berandal [криминал, триллер, боевик, 2014] HDRip, dub [Чистый звук]

Dracon

623 | 19

2.05 ГБ

В этой теме нет новых непрочитанных сообщений. Рейд 2 / The Raid 2: Berandal [криминал, триллер, боевик, 2014] HDRip, Avo

Dracon

170 | 2

2.39 ГБ

В этой теме нет новых непрочитанных сообщений. Рейд 2 / The Raid 2: Berandal [криминал, триллер, боевик, 2014] HDRip, Dub [iTunes]

Dracon

495 | 16

2.05 ГБ

В этой теме нет новых непрочитанных сообщений. Рейд 2 / The Raid 2: Berandal [криминал, триллер, боевик, 2014] BDRip 1080p, Avo

Dracon

295 | 24

12.49 ГБ

В этой теме нет новых непрочитанных сообщений. Рейд 2 / The Raid 2: Berandal [криминал, триллер, боевик, 2014] BDRip 720p, Avo+Sub

Dracon

260 | 5

6.53 ГБ

В этой теме нет новых непрочитанных сообщений. Рейд 2 / The Raid 2: Berandal [криминал, триллер, боевик, 2014] BDRip 1080p, Dub+Avo+Sub [iTunes]

Dracon

345 | 28

13.39 ГБ

В этой теме нет новых непрочитанных сообщений. Рейд: Дилогия / The Raid: Redemption / Serbuan maut: Dilogy [боевик, триллер, криминал, 2011-2014] HDRip, Dub

salma3

141 | 17

2.91 ГБ


Начать новую тему Ответить на тему  [ 1 сообщение ] 




Для Мосгорсуда, Роскомнадзора и рекламодателей:: mosgorsud-torrent[собачка]yandex.ru