Торрент файл
скачать торрент магнет ссылка Добавлен: 26 июн 2014, 14:45
Размер: 1.46 ГБ
Сидеров: 57
Личеров: 7
Статус: (salma3)
Автор

СообщениеДобавлено: 26 июн 2014, 14:45 

Не в сети
Супермодератор
Аватара пользователя
Дата регистрации:
15 фев 2012, 16:44
Возраст: 27
Спасибо: 5143 / 2090
Сообщения: 17478
Контрабандист / Закупщик оружия / The Gunrunner

Год выпуска: 1989
Жанр: Драма, криминал
Режиссер: Нардо Кастилло

В ролях: Кевин Костнер, Сара Ботсфорд, Пол Соулз, Рон Лайе, Алин Ван Дайн, Мартин Неуфелд, Дэвид Коннер, Джон Готье, Стив Майкл, Джордж Элайн, Дэниэл Нэлбах

Описание: Прибыв в родной Монреаль, контрабандист Тед Бобин находит брата Джорджа в бедности, а родной дом в запустении. В поисках оружия и больших денег, он встречается с обольстительной Мод. Эта опасная женщина открывает ему дорогу в криминальный мир, и Тед невольно становится участником трагических событий, связанных с противостоянием богатейших людей города – мэра Уилсона и бизнесмена Лойбмана. Гангстерская история о благородном человеке, который избрал нелегкую миссию по доставке оружия в Китай, чтобы помочь местному сопротивлению и заодно отомстить за смерть своей возлюбленной.



Страна: США, Канада
Продолжительность: 01:18:51
Перевод: Профессиональный [многоголосый] авторский
Оригинальная аудиодорожка: Английская

Файл
Качество: DVDRip
Формат файла: AVI
Видео кодек: XviD
Аудио кодек: AC3
Видео: XviD, 1867 Кбит/с, 640x480
Аудио: Русский, английский (АС3, 2 ch, 192 Кбит/с)

1. Профессиональный многоголосый
2. Авторский (Володарский)
3. Авторский (Гаврилов)
4. Английский
Общее
Полное имя : D:1АААКонтрабандист.avi
Формат : AVI
Формат/Информация : Audio Video Interleave
Размер файла : 1,46 Гбайт
Продолжительность : 1 ч. 18 м.
Общий поток : 2659 Кбит/сек
Программа кодирования : VirtualDubMod 1.5.10.2 (build 2540/release)
Библиотека кодирования : VirtualDubMod build 2540/release

Видео
Идентификатор : 0
Формат : MPEG-4 Visual
Профиль формата : Advanced Simple@L5
Параметр BVOP формата : 2
Параметр QPel формата : Нет
Параметр GMC формата : Без точки перехода
Параметр матрицы формата : Default (MPEG)
Идентификатор кодека : XVID
Идентификатор кодека/Подсказка : XviD
Продолжительность : 1 ч. 18 м.
Битрейт : 1867 Кбит/сек
Ширина : 640 пикселей
Высота : 480 пикселей
Соотношение сторон : 4:3
Частота кадров : 23,976 кадра/сек
Цветовое пространство : YUV
Субдискретизация насыщенности : 4:2:0
Битовая глубина : 8 бит
Тип развёртки : Прогрессивная
Метод сжатия : С потерями
Бит/(Пиксели*Кадры) : 0.253
Размер потока : 1,03 Гбайт (70%)
Библиотека кодирования : XviD 1.2.1 (UTC 2008-12-04)

Аудио #1
Идентификатор : 1
Формат : AC-3
Формат/Информация : Audio Coding 3
Расширение режима : CM (complete main)
Параметр Endianness формата : Big
Идентификатор кодека : 2000
Продолжительность : 1 ч. 18 м.
Вид битрейта : Постоянный
Битрейт : 192 Кбит/сек
Каналы : 2 канала
Расположение каналов : Front: L R
Частота : 48,0 КГц
Битовая глубина : 16 бит
Метод сжатия : С потерями
Размер потока : 108 Мбайт (7%)
Выравнивание : Разделение по промежуткам
Продолжительность промежутка : 42 мс. (1,00 видеокадр)
Время предзагрузки промежутка : 500 мс.

Аудио #2
Идентификатор : 2
Формат : AC-3
Формат/Информация : Audio Coding 3
Расширение режима : CM (complete main)
Параметр Endianness формата : Big
Идентификатор кодека : 2000
Продолжительность : 1 ч. 18 м.
Вид битрейта : Постоянный
Битрейт : 192 Кбит/сек
Каналы : 2 канала
Расположение каналов : Front: L R
Частота : 48,0 КГц
Битовая глубина : 16 бит
Метод сжатия : С потерями
Размер потока : 108 Мбайт (7%)
Выравнивание : Разделение по промежуткам
Продолжительность промежутка : 42 мс. (1,00 видеокадр)
Время предзагрузки промежутка : 500 мс.

Аудио #3
Идентификатор : 3
Формат : AC-3
Формат/Информация : Audio Coding 3
Расширение режима : CM (complete main)
Параметр Endianness формата : Big
Идентификатор кодека : 2000
Продолжительность : 1 ч. 18 м.
Вид битрейта : Постоянный
Битрейт : 192 Кбит/сек
Каналы : 2 канала
Расположение каналов : Front: L R
Частота : 48,0 КГц
Битовая глубина : 16 бит
Метод сжатия : С потерями
Размер потока : 108 Мбайт (7%)
Выравнивание : Разделение по промежуткам
Продолжительность промежутка : 42 мс. (1,00 видеокадр)
Время предзагрузки промежутка : 500 мс.

Аудио #4
Идентификатор : 4
Формат : AC-3
Формат/Информация : Audio Coding 3
Расширение режима : CM (complete main)
Параметр Endianness формата : Big
Идентификатор кодека : 2000
Продолжительность : 1 ч. 18 м.
Вид битрейта : Постоянный
Битрейт : 192 Кбит/сек
Каналы : 2 канала
Расположение каналов : Front: L R
Частота : 48,0 КГц
Битовая глубина : 16 бит
Метод сжатия : С потерями
Размер потока : 108 Мбайт (7%)
Выравнивание : Разделение по промежуткам
Продолжительность промежутка : 42 мс. (1,00 видеокадр)
Время предзагрузки промежутка : 500 мс.



Релиз группа:Автор рипа:


_________________



реклама партнёра


Вернуться к началу
 Профиль Отправить личное сообщение  
 
   Похожие торренты   Автор   Торрент   Размер 
В этой теме нет новых непрочитанных сообщений. Мастер / Lung hang tin haa [боевик, 1989] DVDRip, 2Avo

salma3

123 | 6

1.45 ГБ

В этой теме нет новых непрочитанных сообщений. Бог игроков / Du shen [боевик, драма, комедия, 1989] BDRip 720p, Dvo+2Avo+Sub

salma3

55 | 4

6.37 ГБ

В этой теме нет новых непрочитанных сообщений. Уличный рыцарь / Street Knight [Боевик, драма, криминал, 1993] DVDRip, 2Avo

salma3

28 | 4

1.46 ГБ

В этой теме нет новых непрочитанных сообщений. Кикбоксёр / Kickboxer [Боевик, триллер, спорт, 1989] BDRip 720p, Mvo+Dvo+2Avo+Sub

salma3

11 | 4

8.24 ГБ

В этой теме нет новых непрочитанных сообщений. Беспредел [Драма, криминал, 1989] DVDRip-AVC

Dracon

224 | 9

2.09 ГБ

В этой теме нет новых непрочитанных сообщений. Триады: Внутренние Дела / Wo zai hei she hui de ri zi [драма, криминал, 1989] DVDRip, Avo

salma3

13 | 3

1.46 ГБ

В этой теме нет новых непрочитанных сообщений. Меркурий в опасности / Mercury Rising [боевик, триллер, драма, криминал, 1998] BDRip, Dub+2Avo+Sub

salma3

34 | 5

1.46 ГБ


Начать новую тему Ответить на тему  [ 1 сообщение ] 




Для Мосгорсуда, Роскомнадзора и рекламодателей:: mosgorsud-torrent[собачка]yandex.ru