Торрент файл
скачать торрент магнет ссылка Добавлен: 25 июн 2014, 23:42
Размер: 1.72 ГБ
Сидеров: 579
Личеров: 33
Автор

СообщениеДобавлено: 25 июн 2014, 23:42 

Не в сети
Супермодератор
Аватара пользователя
Дата регистрации:
06 июн 2014, 07:51
Спасибо: 620 / 0
Сообщения: 2001
Информация о фильме
Название: Принцесса Монако
Оригинальное название: Grace of Monaco / Monako princese
Год выхода: 2014
Жанр: Драма, мелодрама, биография
Режиссер: Оливье Даан
В ролях: Николь Кидман, Роджер Эштон-Гриффитс, Фрэнк Ланджелла, Тим Рот, Николас Фэррел, Дерек Джекоби, Пас Вега, Майло Вентимилья, Паркер Поузи, Джеральдин Сомервилль

О фильме:
Весь Голливуд лежал у ее ног — роскошные виллы, oскаровские приемы и шикарные мужчины, но она выбрала королевский дворец, аристократические балы и благородного принца из маленькой страны недалеко от Франции. Она была королевой Голливуда, но предпочла стать Принцессой Монако.

Страна: Франция, США, Бельгия, Италия, Швейцария
Студия: Canal+ [fr], Lucky Red, Silver Reel, Stone Angels, YRF Entertainment
Продолжительность: 01:38:47
Перевод: Дублированный

Файл
Кодек: MPEG-4 AVC
Качество: HDTVRip (AVC)
Видео: 2110 Кбит/с, 1024x428, 25.000 кадр/с
Звук: Русский (АС3, 6 ch, 384 Кбит/с)

Семпл


Общее
Полное имя : Princessa.Monako.2014.x264.HDTVRip(AVC).MediaClub.mkv
Формат : Matroska
Версия формата : Version 2
Размер файла : 1,72 Гбайт
Продолжительность : 1 ч. 38 м.
Общий поток : 2493 Кбит/сек
Название фильма : MediaClub
Дата кодирования : UTC 2014-06-24 08:04:56
Программа кодирования : mkvmerge v5.4.0 ('Piper') built on Mar 10 2012 13:34:39
Библиотека кодирования : libebml v1.2.3 + libmatroska v1.3.0

Видео
Идентификатор : 1
Формат : AVC
Формат/Информация : Advanced Video Codec
Профиль формата : High@L4.1
Параметр CABAC формата : Да
Параметр ReFrames формата : 10 кадров
Идентификатор кодека : V_MPEG4/ISO/AVC
Продолжительность : 1 ч. 38 м.
Битрейт : 2110 Кбит/сек
Ширина : 1024 пикселя
Высота : 428 пикселей
Соотношение сторон : 2,40:1
Режим частоты кадров : Постоянный
Частота кадров : 25,000 кадров/сек
Цветовое пространство : YUV
Субдискретизация насыщенности : 4:2:0
Битовая глубина : 8 бит
Тип развёртки : Прогрессивная
Бит/(Пиксели*Кадры) : 0.193
Размер потока : 1,42 Гбайт (83%)
Библиотека кодирования : x264 core 125 r2208 d9d2288
Настройки программы : cabac=1 / ref=10 / deblock=1:-3:-2 / analyse=0x3:0x133 / me=umh / subme=10 / psy=1 / psy_rd=1.00:0.20 / mixed_ref=1 / me_range=48 / chroma_me=1 / trellis=2 / 8x8dct=1 / cqm=0 / deadzone=21,11 / fast_pskip=0 / chroma_qp_offset=-3 / threads=6 / lookahead_threads=1 / sliced_threads=0 / nr=0 / decimate=0 / interlaced=0 / bluray_compat=0 / constrained_intra=0 / bframes=8 / b_pyramid=2 / b_adapt=2 / b_bias=0 / direct=3 / weightb=1 / open_gop=0 / weightp=2 / keyint=250 / keyint_min=25 / scenecut=40 / intra_refresh=0 / rc=2pass / mbtree=0 / bitrate=2110 / ratetol=1.0 / qcomp=0.60 / qpmin=0 / qpmax=69 / qpstep=4 / cplxblur=20.0 / qblur=0.5 / ip_ratio=1.40 / pb_ratio=1.30 / aq=1:1.00
Язык : English
Default : Да
Forced : Нет

Аудио
Идентификатор : 2
Формат : AC-3
Формат/Информация : Audio Coding 3
Расширение режима : CM (complete main)
Параметр Endianness формата : Big
Идентификатор кодека : A_AC3
Продолжительность : 1 ч. 38 м.
Вид битрейта : Постоянный
Битрейт : 384 Кбит/сек
Каналы : 6 каналов
Расположение каналов : Front: L C R, Side: L R, LFE
Частота : 48,0 КГц
Битовая глубина : 16 бит
Метод сжатия : С потерями
Размер потока : 271 Мбайт (15%)
Язык : Russian
Default : Да
Forced : Нет




реклама партнёра


Вернуться к началу
 Профиль Отправить личное сообщение  
 
   Похожие торренты   Автор   Торрент   Размер 
В этой теме нет новых непрочитанных сообщений. Уже мертв / Déjà mort (Оливье Даан / Olivier Dahan) [1998г., Франция, молодежная драма, DVDRip-AVC] DVO

Alfredovich

91 | 2

1015.69 МБ

В этой теме нет новых непрочитанных сообщений. Повторный Принцесса Ток-хе / Принцесса Док-хе / The Last Princess / Deokhyeongjoo ( драма, биография, история, 2016) HDRip | L2 Данный торрент является блокированным, причина: повторный торрент

marya111

0 | 0

1.46 ГБ

В этой теме нет новых непрочитанных сообщений. Чемпионат Франции 2017-2018 / 13-й тур / Амьен (Амьен) – Монако (Монако) / Футбол 1 HD [17.11.2017, HDTVRip (720р)]

salma3

0 | 0

3.1 ГБ

В этой теме нет новых непрочитанных сообщений. Принцесса Ток-хе / Deokhyeongjoo [драма, биография, история, 2016] HDRip, Dvo

salma3

69 | 26

1.46 ГБ

В этой теме нет новых непрочитанных сообщений. Заложница 3 / Taken 3 (Оливье Мегатон) [Боевик, Триллер, 2014] HDTVRip, dub [Звук с CAMRip]

Dracon

1063 | 9

1.37 ГБ

В этой теме нет новых непрочитанных сообщений. Заложница 3 / Taken 3 (Оливье Мегатон) [Боевик, Триллер, 2014] HDTVRip, dub [Чистый звук]

Dracon

5 | 4

700.54 МБ

В этой теме нет новых непрочитанных сообщений. Заложница 3 / Taken 3 (Оливье Мегатон) [Боевик, Триллер, 2014] HDTVRip, dub [Чистый звук]

Dracon

29 | 3

1.37 ГБ


Начать новую тему Ответить на тему  [ 1 сообщение ] 




Для Мосгорсуда, Роскомнадзора и рекламодателей:: mosgorsud-torrent[собачка]yandex.ru