Торрент файл
скачать торрент магнет ссылка Добавлен: 23 июн 2014, 00:11
Размер: 1.61 ГБ
Сидеров: 540
Личеров: 9
Статус: (salma3)
Автор

СообщениеДобавлено: 23 июн 2014, 00:11 

Не в сети
Супермодератор
Аватара пользователя
Дата регистрации:
06 июн 2014, 07:51
Спасибо: 620 / 0
Сообщения: 2001
Информация о фильме
Название: 13 грехов
Оригинальное название: 13 Sins
Год выпуска: 2014
Жанр: Триллер, ужасы, мистика
Выпущено: США, Little Magic Films, Automatik Entertainment, IM Global
Режиссер: Даниэль Штамм
В ролях: Марк Веббер, Рутина Уэсли, Девон Грайе, Прюитт Тейлор Винс, Том Бауэр, Рон Перлман, Клайд Джонс, Денин Тайлер, Грег Пирсон, Ричи Монтгомери

О фильме: Эллиот Бриндл — умный кроткий сотрудник службы социального обеспечения, тонущий в долгах. Но все меняется, когда раздается телефонный звонок. На том конце провода ему сообщают, что он становится участником тв-шоу, условия простые — выполнить 13 заданий, какими бы странными они не были; приз — деньги, которые копятся с каждым выполненным заданием. Отказ от выполнения или провал задания ведет к обнулению банка. Деньги можно забрать только выполнив все 13 заданий ведущего. Эллиот следует первым инструкциям и с легкостью съедает пойманную муху. На счету Бриндла появляются первые легкие деньги. Эллиот хочет, но не может прекратить игру, чтобы не потерять «заработанное», хотя задачи становятся более изощренными и опасными, а точка невозврата вот-вот будет пройдена.



Файл
Качество: HDRip (AVC)
Видео: MPEG-4 AVC, 1723 Кбит/с, 1024x428
Аудио: Русский, английский (AC3, 6 ch, 384 Кбит/с)
Продолжительность: 01:32:31
Перевод: Любительский одноголосый [R.A.I.M]
Субтитры: Русские, английские

General
Unique ID : 222065337387899178966162422008160562728 (0xA7103A711ED53392AA7208CA7DB5AE28)
Complete name : C:13.Sins.2014.L.HDRip.AVC.ExKinoRay.mkv
Format : Matroska
Format version : Version 2
File size : 1.61 GiB
Duration : 1h 32mn
Overall bit rate : 2 488 Kbps
Movie name : 13 sins 2014 from ExKinoRay
Encoded date : UTC 2014-06-22 00:24:51
Writing application : mkvmerge v4.9.1 ('Ich will') built on Jul 11 2011 23:53:15
Writing library : libebml v1.2.1 + libmatroska v1.1.1

Video
ID : 1
Format : AVC
Format/Info : Advanced Video Codec
Format profile : High@L4.1
Format settings, CABAC : Yes
Format settings, ReFrames : 9 frames
Codec ID : V_MPEG4/ISO/AVC
Duration : 1h 32mn
Bit rate : 1 723 Kbps
Width : 1 024 pixels
Height : 428 pixels
Display aspect ratio : 2.40:1
Frame rate mode : Constant
Frame rate : 23.976 fps
Color space : YUV
Chroma subsampling : 4:2:0
Bit depth : 8 bits
Scan type : Progressive
Bits/(Pixel*Frame) : 0.164
Stream size : 1.08 GiB (67%)
Title : Enigma-Vladislav71
Writing library : x264 core 116 r2044 392e762
Encoding settings : cabac=1 / ref=9 / deblock=1:-2:-2 / analyse=0x3:0x113 / me=umh / subme=10 / psy=1 / psy_rd=1.00:0.20 / mixed_ref=1 / me_range=32 / chroma_me=1 / trellis=2 / 8x8dct=1 / cqm=0 / deadzone=21,11 / fast_pskip=0 / chroma_qp_offset=-3 / threads=12 / sliced_threads=0 / nr=0 / decimate=0 / interlaced=0 / bluray_compat=0 / constrained_intra=0 / bframes=9 / b_pyramid=2 / b_adapt=2 / b_bias=0 / direct=3 / weightb=1 / open_gop=0 / weightp=2 / keyint=240 / keyint_min=23 / scenecut=40 / intra_refresh=0 / rc=2pass / mbtree=0 / bitrate=1723 / ratetol=1.0 / qcomp=0.60 / qpmin=0 / qpmax=69 / qpstep=4 / cplxblur=20.0 / qblur=0.5 / ip_ratio=1.40 / pb_ratio=1.30 / aq=1:1.00
Default : Yes
Forced : No

Audio #1
ID : 2
Format : AC-3
Format/Info : Audio Coding 3
Mode extension : CM (complete main)
Format settings, Endianness : Big
Codec ID : A_AC3
Duration : 1h 32mn
Bit rate mode : Constant
Bit rate : 384 Kbps
Channel(s) : 6 channels
Channel positions : Front: L C R, Side: L R, LFE
Sampling rate : 48.0 KHz
Bit depth : 16 bits
Compression mode : Lossy
Stream size : 254 MiB (15%)
Default : Yes
Forced : No

Audio #2
ID : 3
Format : AC-3
Format/Info : Audio Coding 3
Mode extension : CM (complete main)
Format settings, Endianness : Big
Codec ID : A_AC3
Duration : 1h 32mn
Bit rate mode : Constant
Bit rate : 384 Kbps
Channel(s) : 6 channels
Channel positions : Front: L C R, Side: L R, LFE
Sampling rate : 48.0 KHz
Bit depth : 16 bits
Compression mode : Lossy
Stream size : 254 MiB (15%)
Language : English
Default : No
Forced : No

Text #1
ID : 4
Format : UTF-8
Codec ID : S_TEXT/UTF8
Codec ID/Info : UTF-8 Plain Text
Title : lumez
Language : Russian
Default : No
Forced : No

Text #2
ID : 5
Format : UTF-8
Codec ID : S_TEXT/UTF8
Codec ID/Info : UTF-8 Plain Text
Language : English
Default : No
Forced : No

Menu
00:00:00.000 : en:Chapter 01
00:05:10.602 : en:Chapter 02
00:10:52.610 : en:Chapter 03
00:16:12.972 : en:Chapter 04
00:23:14.685 : en:Chapter 05
00:28:38.926 : en:Chapter 06
00:35:55.528 : en:Chapter 07
00:40:40.897 : en:Chapter 08
00:48:50.177 : en:Chapter 09
00:56:12.077 : en:Chapter 10
01:03:46.823 : en:Chapter 11
01:11:24.447 : en:Chapter 12
01:15:58.262 : en:Chapter 13
01:22:09.716 : en:Chapter 14
01:28:21.296 : en:Chapter 15





реклама партнёра


Вернуться к началу
 Профиль Отправить личное сообщение  
 
   Похожие торренты   Автор   Торрент   Размер 
В этой теме нет новых непрочитанных сообщений. 13 грехов / 13 Sins (Даниэль Штамм) [Триллер, Ужасы, 2013] HDRip, dub [чистый звук]

Dracon

3794 | 125

1.37 ГБ

В этой теме нет новых непрочитанных сообщений. 13 грехов / 13 Sins (Даниэль Штамм) [Триллер, Ужасы, 2013] BDRip-AVC, dub+sub [НТВ+]

Dracon

441 | 41

2.18 ГБ

В этой теме нет новых непрочитанных сообщений. 13 грехов / 13 Sins (Даниэль Штамм) [Триллер, Ужасы, 2013] BDRip 1080p, dub+sub [НТВ+]

Dracon

103 | 4

7.77 ГБ

В этой теме нет новых непрочитанных сообщений. 13 грехов / 13 Sins (Даниэль Штамм) [Триллер, Ужасы, 2013] BDRip 720p, dub+sub [НТВ+]

Dracon

37 | 3

4.03 ГБ

В этой теме нет новых непрочитанных сообщений. 13 грехов / 13 Sins (Даниэль Штамм) [Триллер, Ужасы, 2013] BDRemux 1080p, dub+sub [чистый звук]

Dracon

393 | 53

16.75 ГБ

В этой теме нет новых непрочитанных сообщений. Злоумышленники / Intruders [S01] (Даниэль Штамм, Эдуардо Санчес) [2014, триллер, детектив, фантастика, мистика, WEB-DLRip | VO-production]

Nickolas3435

119 | 37

3.8 ГБ

В этой теме нет новых непрочитанных сообщений. Пловцы / Fak wai nai gai thoe [ужасы, триллер, мистика, драма, 2014] HDRip, dvo

Dracon

1 | 3

1.46 ГБ


Начать новую тему Ответить на тему  [ 1 сообщение ] 




Для Мосгорсуда, Роскомнадзора и рекламодателей:: mosgorsud-torrent[собачка]yandex.ru