Торрент файл
скачать торрент магнет ссылка Добавлен: 21 июн 2014, 14:57
Размер: 2.74 ГБ
Сидеров: 123
Личеров: 12
Статус: (Dracon)
Автор

СообщениеДобавлено: 21 июн 2014, 14:57 

Не в сети
Зам. Админа
Аватара пользователя
Дата регистрации:
02 дек 2010, 12:39
Спасибо: 12461 / 214
Сообщения: 27968
Год выхода: 2013
Жанр: драма
Режиссер: Ким Мордаунт
В ролях: Самрит Варин, Алис Кеохавонг, Ситтифон Дисамое, Лоунгнам Каосаинам, Сутхеп По-нгам, Бунсри Йинди

О фильме:
Это история о мальчике, который уверен, что приносит только беды тем, рядом с кем находится. Он отправляется вместе со своей семьей и двумя новыми друзьями в Лаос в поисках нового дома. После трудного и опасного путешествия через страну, которая опустошена в результате прошедшей войны, он предпринимает попытку доказать себе и окружающим, что он вовсе не неудачник, он создает гигантскую ракету, чтобы принять участие в захватывающем, но очень опасном состязании года — фестивале ракет.


Страна: Австралия, Таиланд, Лаос
Студия: Red Lamp Films
Продолжительность: 01:31:58
Перевод: Любительский (одноголосый закадровый) – PashaUP

Кодек: h.264 (MKV)
Качество: WEB-DL 720p
Видео: AVC, 1280 x 536, ~3349 kbps
Звук: Русский / Лаосский: AC-3, 6 ch, 448 kbps
Субтитры: Русский, английский

Семпл

Общее
Уникальный идентификатор : 254411924054840372575564063564423441211 (0xBF65F44B57BD373CA2AA02DD764F2B3B)
Полное имя : G: Ракета The Rocket (2013) WEB-DLRipНовая папкаThe.Rocket.2013.720p.WEB-DL..mkv
Формат : Matroska
Версия формата : Version 4 / Version 2
Размер файла : 2,74 Гбайт
Продолжительность : 1 ч. 31 м.
Общий поток : 4266 Кбит/сек
Название фильма : profile.php?mode=viewprofile&u=22488948
Дата кодирования : UTC 2014-06-21 06:26:37
Программа кодирования : mkvmerge v6.9.1 ('Blue Panther') 64bit built on Apr 18 2014 18:23:38
Библиотека кодирования : libebml v1.3.0 + libmatroska v1.4.1

Видео
Идентификатор : 1
Формат : AVC
Формат/Информация : Advanced Video Codec
Профиль формата : Main@L5.1
Параметр CABAC формата : Да
Параметр ReFrames формата : 1 кадр
Идентификатор кодека : V_MPEG4/ISO/AVC
Продолжительность : 1 ч. 31 м.
Битрейт : 3349 Кбит/сек
Ширина : 1280 пикселей
Высота : 536 пикселей
Соотношение сторон : 2,40:1
Режим частоты кадров : Постоянный
Частота кадров : 25,000 кадров/сек
Цветовое пространство : YUV
Субдискретизация насыщенности : 4:2:0
Битовая глубина : 8 бит
Тип развёртки : Прогрессивная
Бит/(Пиксели*Кадры) : 0.195
Размер потока : 2,15 Гбайт (79%)
Default : Да
Forced : Нет

Аудио #1
Идентификатор : 2
Формат : AC-3
Формат/Информация : Audio Coding 3
Расширение режима : CM (complete main)
Параметр Endianness формата : Big
Идентификатор кодека : A_AC3
Продолжительность : 1 ч. 31 м.
Вид битрейта : Постоянный
Битрейт : 448 Кбит/сек
Каналы : 6 каналов
Расположение каналов : Front: L C R, Side: L R, LFE
Частота : 48,0 КГц
Битовая глубина : 16 бит
Метод сжатия : С потерями
Размер потока : 295 Мбайт (11%)
Default : Нет
Forced : Нет

Аудио #2
Идентификатор : 3
Формат : AC-3
Формат/Информация : Audio Coding 3
Расширение режима : CM (complete main)
Параметр Endianness формата : Big
Идентификатор кодека : A_AC3
Продолжительность : 1 ч. 31 м.
Вид битрейта : Постоянный
Битрейт : 384 Кбит/сек
Каналы : 6 каналов
Расположение каналов : Front: L C R, Side: L R, LFE
Частота : 48,0 КГц
Битовая глубина : 16 бит
Метод сжатия : С потерями
Размер потока : 253 Мбайт (9%)
Заголовок : AC3 5.1 @ 384 kbps
Язык : Lao
Default : Да
Forced : Нет

Текст #1
Идентификатор : 4
Формат : UTF-8
Идентификатор кодека : S_TEXT/UTF8
Идентификатор кодека/Информация : UTF-8 Plain Text
Заголовок : iTunes
Язык : Russian
Default : Да
Forced : Нет

Текст #2
Идентификатор : 5
Формат : UTF-8
Идентификатор кодека : S_TEXT/UTF8
Идентификатор кодека/Информация : UTF-8 Plain Text
Заголовок : iTunes
Язык : English
Default : Нет
Forced : Нет

Меню
00:00:00.000 : lo:1
00:27:23.000 : lo:2
00:57:13.000 : lo:3
01:27:50.000 : lo:4




реклама партнёра


Вернуться к началу
 Профиль  
 
   Похожие торренты   Автор   Торрент   Размер 
В этой теме нет новых непрочитанных сообщений. Бутылочная ракета / Bottle Rocket [драма, комедия, криминал, 1996] BDRip 720p, Avo+Dvo

salma3

19 | 2

4.07 ГБ

В этой теме нет новых непрочитанных сообщений. Mom's Rocket - Red [2013,Hard Rock,MP3]

PriZraK

0 | 1

113.55 МБ

В этой теме нет новых непрочитанных сообщений. Rocket Sister - Rocket Sister [2012, Pop Metal, MP3]

PriZraK

1 | 2

80.86 МБ

В этой теме нет новых непрочитанных сообщений. Space Rocket [Arcade, 2014] [Лицензия]

Tobus

0 | 2

17.33 МБ

В этой теме нет новых непрочитанных сообщений. Flappy Rocket [Arcade, 2014] [Лицензия]

Tobus

1 | 2

14.46 МБ

В этой теме нет новых непрочитанных сообщений. The Rockets - Rocket Roll [1982, Hard Rock, MP3]

PriZraK

4 | 2

82.03 МБ

В этой теме нет новых непрочитанных сообщений. The Boogiemen Inc - Rocket Surgery [2012,Rock-n-Roll,MP3]

PriZraK

0 | 1

91.62 МБ


Начать новую тему Ответить на тему  [ 1 сообщение ] 




Для Мосгорсуда, Роскомнадзора и рекламодателей:: mosgorsud-torrent[собачка]yandex.ru