Торрент файл
скачать торрент магнет ссылка Добавлен: 19 июн 2014, 22:48
Размер: 1.46 ГБ
Сидеров: 7
Личеров: 4
Статус: (salma3)
Автор

СообщениеДобавлено: 19 июн 2014, 22:48 

В сети
Супермодератор
Аватара пользователя
Дата регистрации:
15 фев 2012, 16:44
Возраст: 27
Спасибо: 5143 / 2090
Сообщения: 17475
Камера / The Chamber

Год выхода: 1996
Жанр: Триллер, Драма
Режиссер: Джеймс Фоули / James Foley

В ролях: Крис О’Доннелл, Джин Хэкмен, Фэй Данауэй, Роберт Проски, Рэймонд Дж. Бэрри, Бо Джексон, Лила Рошон, Дэвид Маршалл Грант, Николас Прайор, Харви Преснелл

О фильме:
В апреле 1967 года в одном из южных штатов расисты взорвали контору еврея. Погибли двое детей. Затем действие переносится в Чикаго 1996 года. Молодой адвокат должен защищать человека, виновного в этом преступлении. Его ждет смертный приговор…

По роману Джона Гришема



Страна: США
Студия: Universal Pictures
Продолжительность: 01:52:31
Перевод: Профессиональный (двухголосый закадровый)

Файл
Качество: WEB-DLRip
Формат файла: AVI
Видео кодек: XviD
Аудио кодек: AC3
Видео: 720x304, 23,976 fps, 1659 kbps
Звук: 48.0 KHz, AC3 Dolby Digital, 2/0 (L,R) ch, 192 kbps

Общее
Полное имя : The.Chamber.1996.WEB-DLRip.avi
Формат : AVI
Формат/Информация : Audio Video Interleave
Размер файла : 1,46 Гбайт
Продолжительность : 1 ч. 52 м.
Общий поток : 1860 Кбит/сек
Программа кодирования : VirtualDubMod 1.5.10.3 | http://www.virtualdub-fr.org || (build 2550/release)
Библиотека кодирования : VirtualDubMod build 2550/release

Видео
Идентификатор : 0
Формат : MPEG-4 Visual
Профиль формата : Advanced Simple@L5
Параметр BVOP формата : 1
Параметр QPel формата : Нет
Параметр GMC формата : Без точки перехода
Параметр матрицы формата : Выборочная
Идентификатор кодека : XVID
Идентификатор кодека/Подсказка : XviD
Продолжительность : 1 ч. 52 м.
Битрейт : 1659 Кбит/сек
Ширина : 720 пикс.
Высота : 304 пикс.
Соотношение сторон : 2,35:1
Частота кадров : 23,976 кадр/сек
Цветовое пространство : YUV
Подвыборка цветности : 4:2:0
Битовая глубина : 8 бит
Тип развёртки : Прогрессивная
Метод сжатия : С потерями
Бит/(Пиксели*Кадры) : 0.316
Размер потока : 1,30 Гбайт (89%)
Библиотека кодирования : XviD 73

Аудио
Идентификатор : 1
Формат : AC-3
Формат/Информация : Audio Coding 3
Расширение режима : CM (complete main)
Идентификатор кодека : 2000
Продолжительность : 1 ч. 52 м.
Вид битрейта : Постоянный
Битрейт : 192 Кбит/сек
Канал(ы) : 2 канала(ов)
Расположение каналов : Front: L R
Частота : 48,0 КГц
Битовая глубина : 16 бит
Метод сжатия : С потерями
Размер потока : 154 Мбайт (10%)
Выравнивание : Разделение по промежуткам
Продолжительность промежутка : 42 мс. (1,00 видеокадр)
Время предзагрузки промежутка : 500 ms


Релиз от: Leon-masl


_________________



реклама партнёра


Вернуться к началу
 Профиль Отправить личное сообщение  
 
   Похожие торренты   Автор   Торрент   Размер 
В этой теме нет новых непрочитанных сообщений. Камера в губной помаде / Lipstick Camera [триллер, 1994] Web-Rip, Avo

salma3

68 | 0

1.37 ГБ

В этой теме нет новых непрочитанных сообщений. Камера в губной помаде / Lipstick Camera [боевик, триллер, 1994] VHSRip, Avo

salma3

18 | 8

1.16 ГБ

В этой теме нет новых непрочитанных сообщений. Комната страха / Fear Chamber [ужасы, фантастика, фэнтези, триллер, 1968] DVDRip, Avo

salma3

7 | 4

1.46 ГБ

В этой теме нет новых непрочитанных сообщений. Любовь преступника / Jeet [Драма, мелодрама, 1996] WEB-DLRip, Avo

salma3

2 | 0

1.46 ГБ

В этой теме нет новых непрочитанных сообщений. Камера 211 / Celda 211 [Боевик, криминальная драма, 2009] BDRip, Dub [КПК]

salma3

8 | 2

488.36 МБ

В этой теме нет новых непрочитанных сообщений. Экранная Камера 2.0 [2014] [Repack]

Dracon

332 | 5

61.83 МБ

В этой теме нет новых непрочитанных сообщений. Головоломка / Conundrum [триллер, драма, криминал, 1996] SATRip, Dvo

salma3

21 | 2

1.1 ГБ


Начать новую тему Ответить на тему  [ 1 сообщение ] 




Для Мосгорсуда, Роскомнадзора и рекламодателей:: mosgorsud-torrent[собачка]yandex.ru