Торрент файл
скачать торрент магнет ссылка Добавлен: 18 июн 2014, 21:28
Размер: 1.47 ГБ
Сидеров: 8
Личеров: 2
Статус: (salma3)
Автор

СообщениеДобавлено: 18 июн 2014, 21:28 

Не в сети
Супермодератор
Аватара пользователя
Дата регистрации:
15 фев 2012, 16:44
Возраст: 27
Спасибо: 5143 / 2090
Сообщения: 17478
Ночной убийца / Dead by Midnight

Год выпуска: 1997
Жанр: Фантастика, триллер
Режиссер: Джим МакБрайд / Jim McBride

В ролях: Тимоти Хаттон, Сьюзи Эмис, Джон Гловер, Макс Райт, Грант Хеслов, Дж. Скотт Бронсон, Лилиана Кэбал, Брэд Гринкуист, Бенджамин Израэли, Джин Дженкинс, Мэтт Макбрайд, Джоуи Миясима, Моава Прайор, Риз Персер, Деннис Сэйлор, Дуэйн Стивенс, Кристи Саммерхэйс, Скотт Уилкинсон, Ивонн Зима

Описание: У Джона Ларкина было все: хорошая работа, жена, дети, но в один злосчастный день его жизнь перевернулась. Когда он против собственной воли чуть было не убил свою жену Лайзу, в его дом ворвались вооруженные люди и куда-то его увезли. Джону удалось сбежать, но он не особо-то рад этому - окружающий мир пугающе изменился. В его доме живут посторонние люди. У жены, оказывается, совершенно другое имя - Сара Флинт. Да и сам он является лишь частью сверхсекретного эксперимента. На самом деле зовут его Сэм Эллис, и профессия у него отнюдь не мирная. Джон-Сэм - киллер-профессионал…



Страна: США
Продолжительность: 01:25:52
Перевод: Профессиональный [двухголосый]

Файл
Качество: DVDRip [исх. DVD5]
Формат файла: AVI
Видео кодек: XviD
Аудио кодек: AC3
Video: 640x480 (1.33:1), 25 fps, XviD build 50 ~2050 kbps avg, 0.27 bit/pixel
Audio: 48 kHz, AC3 Dolby Digital, 2/0 (L,R) ch, ~384.00 kbps avg

Время Раздачи 11-00 до 16-00 + 20-00 до 03-00

download\Dead_by_Midnight_DVDRip.avi
Формат : AVI
Формат/Информация : Audio Video Interleave
Размер файла : 1,47 Гбайт
Продолжительность : 1 ч. 25 м.
Общий поток : 2444 Кбит/сек
Программа кодирования : VirtualDubMod 1.5.10.3 | http://www.virtualdub-fr.org || (build 2550/release)
Библиотека кодирования : VirtualDubMod build 2550/release

Видео
Идентификатор : 0
Формат : MPEG-4 Visual
Профиль формата : Advanced Simple@L5
Параметр BVOP формата : 3
Параметр QPel формата : Нет
Параметр GMC формата : Без точки перехода
Параметр матрицы формата : Default (H.263)
Идентификатор кодека : XVID
Идентификатор кодека/Подсказка : XviD
Продолжительность : 1 ч. 25 м.
Битрейт : 2050 Кбит/сек
Ширина : 640 пикселей
Высота : 480 пикселей
Соотношение сторон : 4:3
Частота кадров : 25,000 кадров/сек
Цветовое пространство : YUV
Субдискретизация насыщенности : 4:2:0
Битовая глубина : 8 бит
Тип развёртки : Прогрессивная
Метод сжатия : С потерями
Бит/(Пиксели*Кадры) : 0.267
Размер потока : 1,23 Гбайт (84%)
Библиотека кодирования : XviD 1.2.1 (UTC 2008-12-04)

Аудио
Идентификатор : 1
Формат : AC-3
Формат/Информация : Audio Coding 3
Расширение режима : CM (complete main)
Параметр Endianness формата : Big
Идентификатор кодека : 2000
Продолжительность : 1 ч. 25 м.
Вид битрейта : Постоянный
Битрейт : 384 Кбит/сек
Каналы : 2 канала
Расположение каналов : Front: L R
Частота : 48,0 КГц
Битовая глубина : 16 бит
Метод сжатия : С потерями
Размер потока : 236 Мбайт (16%)
Выравнивание : Разделение по промежуткам
Продолжительность промежутка : 40 мс. (1,00 видеокадр)
Время предзагрузки промежутка : 500 мс.

Релиз от:


_________________



реклама партнёра


Вернуться к началу
 Профиль Отправить личное сообщение  
 
   Похожие торренты   Автор   Торрент   Размер 
В этой теме нет новых непрочитанных сообщений. Специальный полуночный выпуск / Midnight Special [фантастика, триллер, приключения, 2016] HDRip, Avo

salma3

46 | 3

1.38 ГБ

В этой теме нет новых непрочитанных сообщений. Следующая полночь / The Midnight After (Фрут Чан) [2014, триллер, комедия, детектив, фантастика, HDRip] dvo

Nickolas3435

760 | 54

2.07 ГБ

В этой теме нет новых непрочитанных сообщений. Кобра-убийца / King Cobra [ужасы, фантастика, триллер, 1999] WEB-DL 720p, Mvo

salma3

9 | 3

2.98 ГБ

В этой теме нет новых непрочитанных сообщений. Специальный полуночный выпуск / Midnight Special [фантастика, триллер, драма, приключения, 2016] BDRip 720p, Mvo

salma3

47 | 7

6.65 ГБ

В этой теме нет новых непрочитанных сообщений. Специальный полуночный выпуск / Midnight Special [фантастика, триллер, драма, приключения, 2016] BDRip 1080p, Mvo

salma3

65 | 2

9.13 ГБ

В этой теме нет новых непрочитанных сообщений. Мертвые, как я / Dead Like Me [S01-02] [Комедия, Фантастика, Триллер, драма, 2003-2004] DVDRip, Dub [ТВ-3]

salma3

15 | 9

11.49 ГБ

В этой теме нет новых непрочитанных сообщений. Человек, который плакал / Плачущий убийца / Crying Man / No Tears for the Dead [боевик, драма, криминал, 2014] HDTVRip, Dvo

salma3

214 | 11

1.46 ГБ


Начать новую тему Ответить на тему  [ 1 сообщение ] 




Для Мосгорсуда, Роскомнадзора и рекламодателей:: mosgorsud-torrent[собачка]yandex.ru