Торрент файл
скачать торрент магнет ссылка Добавлен: 18 июн 2014, 17:42
Размер: 2.3 ГБ
Сидеров: 316
Личеров: 22
Статус: (salma3)
Автор

СообщениеДобавлено: 18 июн 2014, 17:42 

Не в сети
Релизёр
Дата регистрации:
14 июл 2013, 00:47
Возраст: 20
Спасибо: 10 / 1
Сообщения: 21
Информация о фильме
Название: Холостячки в Вегасе
Оригинальное название: Best Night Ever
Год выпуска: 2014
Жанр: Комедия
Выпущено: США, Magnet Releasing (Magnolia)
Режиссер: Джейсон Фридберг, Аарон Зельцер
В ролях: Дезри Холл, Саманта Колберн, Эдвина Ричард, Криста Флэнеган, Кристиан Барильяс, Джейсон Бобьен, Гайл Бранко, Хантер Драго, Мэтт Драго, Энди Фавро

О фильме: Перед тем как выйти замуж, молодая красотка отправляется с тремя лучшими подружками на свою последнюю холостяцкую вечеринку в Лас-Вегас. Все, что ни случается, к лучшему — гласит народная мудрость. Неужели это так, даже если все сумасшествие, происходящее в Лас-Вегасе, будет записано на видео?..



Файл
Качество: HDRip-AVC
Видео: MPEG-4 AVC, 3178 кбит/с, 1024x576
Аудио: Русский (AC3, 6 ch, 448 кбит/с), английский (AC3, 6 ch, 384 кбит/с)
Продолжительность: 01:22:05
Перевод: Профессиональный многоголосый
Субтитры: Английские

General
Unique ID : 187768280322258430423142945465435452601 (0x8D42DAF9639257579FE9F858528474B9)
Complete name : C:Best.Night.Ever.2014.P.HDRip.AVC.ExKinoRay.mkv
Format : Matroska
Format version : Version 2
File size : 2.30 GiB
Duration : 1h 22mn
Overall bit rate : 4 012 Kbps
Movie name : Best Night Ever from ExKinoRay
Encoded date : UTC 2014-06-18 05:14:19
Writing application : mkvmerge v4.9.1 ('Ich will') built on Jul 11 2011 23:53:15
Writing library : libebml v1.2.1 + libmatroska v1.1.1

Video
ID : 1
Format : AVC
Format/Info : Advanced Video Codec
Format profile : High@L4.1
Format settings, CABAC : Yes
Format settings, ReFrames : 9 frames
Codec ID : V_MPEG4/ISO/AVC
Duration : 1h 22mn
Bit rate : 3 178 Kbps
Width : 1 024 pixels
Height : 576 pixels
Display aspect ratio : 16:9
Frame rate mode : Constant
Frame rate : 23.976 fps
Color space : YUV
Chroma subsampling : 4:2:0
Bit depth : 8 bits
Scan type : Progressive
Bits/(Pixel*Frame) : 0.225
Stream size : 1.78 GiB (77%)
Title : Enigma-Vladislav71
Writing library : x264 core 116 r2044 392e762
Encoding settings : cabac=1 / ref=9 / deblock=1:-2:-2 / analyse=0x3:0x113 / me=umh / subme=10 / psy=1 / psy_rd=1.00:0.20 / mixed_ref=1 / me_range=32 / chroma_me=1 / trellis=2 / 8x8dct=1 / cqm=0 / deadzone=21,11 / fast_pskip=0 / chroma_qp_offset=-3 / threads=12 / sliced_threads=0 / nr=0 / decimate=0 / interlaced=0 / bluray_compat=0 / constrained_intra=0 / bframes=9 / b_pyramid=2 / b_adapt=2 / b_bias=0 / direct=3 / weightb=1 / open_gop=0 / weightp=2 / keyint=240 / keyint_min=23 / scenecut=40 / intra_refresh=0 / rc=2pass / mbtree=0 / bitrate=3178 / ratetol=1.0 / qcomp=0.60 / qpmin=0 / qpmax=69 / qpstep=4 / cplxblur=20.0 / qblur=0.5 / ip_ratio=1.40 / pb_ratio=1.30 / aq=1:1.00
Default : Yes
Forced : No

Audio #1
ID : 2
Format : AC-3
Format/Info : Audio Coding 3
Mode extension : CM (complete main)
Format settings, Endianness : Big
Codec ID : A_AC3
Duration : 1h 22mn
Bit rate mode : Constant
Bit rate : 448 Kbps
Channel(s) : 6 channels
Channel positions : Front: L C R, Side: L R, LFE
Sampling rate : 48.0 KHz
Bit depth : 16 bits
Compression mode : Lossy
Stream size : 263 MiB (11%)
Language : Russian
Default : Yes
Forced : No

Audio #2
ID : 3
Format : AC-3
Format/Info : Audio Coding 3
Mode extension : CM (complete main)
Format settings, Endianness : Big
Codec ID : A_AC3
Duration : 1h 22mn
Bit rate mode : Constant
Bit rate : 384 Kbps
Channel(s) : 6 channels
Channel positions : Front: L C R, Side: L R, LFE
Sampling rate : 48.0 KHz
Bit depth : 16 bits
Compression mode : Lossy
Stream size : 225 MiB (10%)
Language : English
Default : No
Forced : No

Text
ID : 4
Format : UTF-8
Codec ID : S_TEXT/UTF8
Codec ID/Info : UTF-8 Plain Text
Language : English
Default : No
Forced : No






Релиз от:

Авторы релиза:




реклама партнёра


Вернуться к началу
 Профиль Отправить личное сообщение  
 
   Похожие торренты   Автор   Торрент   Размер 
В этой теме нет новых непрочитанных сообщений. Секс на две ночи / Two Night Stand (Макс Николс) [Мелодрама, Комедия, 2014] HDRip, Mvo [Лицензия]

Dracon

741 | 36

1.35 ГБ

В этой теме нет новых непрочитанных сообщений. Ночь в музее: Секрет гробницы / Night at the Museum: Secret of the Tomb (Шон Леви) [Фэнтези, комедия, приключения, семейный, 2015] HDRip, Dub [Лицензия]

Dracon

120 | 10

1.41 ГБ

В этой теме нет новых непрочитанных сообщений. Пристегните ремни / Allacciate le cinture [Комедия, мелодрама, 2014] HDRip, Dub [Лицензия]

Dracon

38 | 4

2.05 ГБ

В этой теме нет новых непрочитанных сообщений. Пристегните ремни / Allacciate le cinture [Комедия, мелодрама, 2014] HDRip, Dub [Лицензия]

Dracon

19 | 3

1.46 ГБ

В этой теме нет новых непрочитанных сообщений. Унижение / The Humbling (Барри Левинсон) [Драма, Комедия, 2014] HDRip, Mvo [Лицензия]

Dracon

349 | 11

1.37 ГБ

В этой теме нет новых непрочитанных сообщений. Дальше живите сами / This Is Where I Leave You [Драма, Комедия, 2014] HDRip, Mvo [лицензия]

Dracon

0 | 2

1.37 ГБ

В этой теме нет новых непрочитанных сообщений. Рождество / The Night Before [комедия, 2015] BDRip, dub [Лицензия]

marya111

39 | 6

2.18 ГБ


Начать новую тему Ответить на тему  [ 1 сообщение ] 




Для Мосгорсуда, Роскомнадзора и рекламодателей:: mosgorsud-torrent[собачка]yandex.ru