Торрент файл
скачать торрент магнет ссылка Добавлен: 13 июн 2014, 21:48
Размер: 1.46 ГБ
Сидеров: 25
Личеров: 15
Статус: (salma3)
Автор

СообщениеДобавлено: 13 июн 2014, 21:48 

Не в сети
Супермодератор
Аватара пользователя
Дата регистрации:
15 фев 2012, 16:44
Возраст: 27
Спасибо: 5139 / 2089
Сообщения: 17411
Ураган / Торнадо / Nature Unleashed: Tornado

«Разрушительная сила стихии»

Год выпуска: 2004
Жанр: ужасы, боевик, триллер
Режиссер: Ален Якубович / Alan Jakubowicz

В ролях: Дэниэл Бернхард, Рут Платт, Аня Лахири, Ларри Поттер, Джулиен Пенаруз, Стефен Шеллен, Лиза Стотхард, Каспар Зафер, Михай Фланик, Джордж Григоре...

Описание: Джошуа,переживший в детстве трагическую гибель отца-сейсмолога,работает операторам в крупной нью- йоркской телекомпании.Получив задание взять интервью у премьер-министра Румынии,занявшего этот пост благодаря своей лояльности к местным цыганам, Джош и его коллега Ники отправляются в Бухарест. Расследуя связь политика с местными цыганами, они сталкиваются с деятельностью таинственной секты, осуществляющей древние обряды и жертвоприношения, призванные вызывать демонов бури, что непостижимым образом связано с внезапно участившимися случаями возникновения торнадо. Подозревая, что все это лишь первая фаза надвигающейся катастрофы, Джош и Ники пытаются предупредить власти об опасности, но упираются в стену личных, корыстных амбиций местных чиновников. Не видя иного выхода, друзья решают провести собственное расследование.



Страна: Канада
Продолжительность: 01:29:16
Перевод: Профессиональный (двухголосый закадровый)

Файл
Качество: DVDRip [исх. DVD5]
Формат файла: AVI
Видео кодек: XviD
Аудио кодек: AC3
Video: 640x480 (1.33:1), 25 fps, XviD build 50 ~2114 kbps avg, 0.28 bit/pixel
Audio: 48 kHz, AC3 Dolby Digital, 2/0 (L,R) ch, ~224.00 kbps avg

Время Раздачи 11-00 до 16-00 + 20-00 до 03-00

download\Nature_Unleashed_Tornado_2004.DVDRip.avi
Формат : AVI
Формат/Информация : Audio Video Interleave
Размер файла : 1,46 Гбайт
Продолжительность : 1 ч. 29 м.
Общий поток : 2348 Кбит/сек
Программа кодирования : VirtualDubMod 1.5.10.3 | http://www.virtualdub-fr.org || (build 2550/release)
Библиотека кодирования : VirtualDubMod build 2550/release

Видео
Идентификатор : 0
Формат : MPEG-4 Visual
Профиль формата : Advanced Simple@L5
Параметр BVOP формата : 3
Параметр QPel формата : Нет
Параметр GMC формата : Без точки перехода
Параметр матрицы формата : Default (H.263)
Идентификатор кодека : XVID
Идентификатор кодека/Подсказка : XviD
Продолжительность : 1 ч. 29 м.
Битрейт : 2114 Кбит/сек
Ширина : 640 пикселей
Высота : 480 пикселей
Соотношение сторон : 4:3
Частота кадров : 25,000 кадров/сек
Цветовое пространство : YUV
Субдискретизация насыщенности : 4:2:0
Битовая глубина : 8 бит
Тип развёртки : Прогрессивная
Метод сжатия : С потерями
Бит/(Пиксели*Кадры) : 0.275
Размер потока : 1,32 Гбайт (90%)
Библиотека кодирования : XviD 1.2.1 (UTC 2008-12-04)

Аудио
Идентификатор : 1
Формат : AC-3
Формат/Информация : Audio Coding 3
Расширение режима : CM (complete main)
Параметр Endianness формата : Big
Идентификатор кодека : 2000
Продолжительность : 1 ч. 29 м.
Вид битрейта : Постоянный
Битрейт : 224 Кбит/сек
Каналы : 2 канала
Расположение каналов : Front: L R
Частота : 48,0 КГц
Битовая глубина : 16 бит
Метод сжатия : С потерями
Размер потока : 143 Мбайт (10%)
Выравнивание : Разделение по промежуткам
Продолжительность промежутка : 40 мс. (1,00 видеокадр)
Время предзагрузки промежутка : 500 мс.

Релиз от:


_________________



реклама партнёра


Вернуться к началу
 Профиль Отправить личное сообщение  
 
   Похожие торренты   Автор   Торрент   Размер 
В этой теме нет новых непрочитанных сообщений. Голубой торнадо / Blue Tornado [фантастика, боевик, триллер, 1991] DVDRip, Avo+Sub

salma3

43 | 3

831.73 МБ

В этой теме нет новых непрочитанных сообщений. Шесть / Six: The Mark Unleashed [Фантастика, боевик, триллер, драма, 2004] DVDRip, Mvo

salma3

36 | 2

1.45 ГБ

В этой теме нет новых непрочитанных сообщений. Акулий торнадо 2 / Sharknado 2: The Second One [ужасы, фантастика, триллер, 2014] HDRip, Mvo [SDI Media]

salma3

152 | 13

1.46 ГБ

В этой теме нет новых непрочитанных сообщений. Акулий торнадо 2 / Sharknado 2: The Second One [ужасы, фантастика, триллер, 2014] HDTV 720p, Mvo

salma3

127 | 8

2.5 ГБ

В этой теме нет новых непрочитанных сообщений. Акулий торнадо 2 / Sharknado 2: The Second One [ужасы, фантастика, триллер, 2014] HDTVRip, Mvo [SDI Media]

salma3

191 | 7

1.37 ГБ

В этой теме нет новых непрочитанных сообщений. Проклятье мертвого озера / Snakehead Terror [ужасы, фантастика, боевик, триллер, 2004] DVDRip, Dvo

salma3

6 | 4

1.37 ГБ

В этой теме нет новых непрочитанных сообщений. Акулий торнадо 4: Пробуждение / Sharknado 4: The 4th Awakens [ужасы, фантастика, 2016] WEBRip, Avo

salma3

15 | 1

1.46 ГБ


Начать новую тему Ответить на тему  [ 1 сообщение ] 




Для Мосгорсуда, Роскомнадзора и рекламодателей:: mosgorsud-torrent[собачка]yandex.ru