Торрент файл
скачать торрент магнет ссылка Добавлен: 08 июн 2014, 01:34
Размер: 1.46 ГБ
Сидеров: 9
Личеров: 3
Статус: (salma3)
Автор

СообщениеДобавлено: 08 июн 2014, 01:34 

В сети
Супермодератор
Аватара пользователя
Дата регистрации:
15 фев 2012, 16:44
Возраст: 28
Спасибо: 6584 / 2144
Сообщения: 44086
Глаз тигра / Eye of the Tiger

Год выпуска: 1986
Жанр: боевик
Режиссер: Ричард Сарафьян /Richard C. Sarafian

В ролях: Гэри Бьюзи, Яфет Котто, Сеймур Кассель, Берт Ремсен, Уильям Смит, Кимберлин Браун

Описание:
Вернувшись с войны во Вьетнаме, Бак Мэтьюс устроился прорабом на стройке в своём небольшом городишке в Техасе. Однажды после ссоры в баре, защищая свою жизнь, он случайно убил бандита и оказался в тюрьме. Там он спас жизнь одному из очень влиятельных мексиканских гангстеров Джемми, с которым вместе и вышел на свободу. Чтобы отблагодарить Бака, мексиканец предложил ему поехать вместе с ним в Мексику...



Страна: США
Продолжительность: 01:31:59
Перевод: Профессиональный (двухголосый)

Файл
Качество: DVDRip [исх. DVD5]
Формат файла: AVI
Видео кодек: XviD
Аудио кодек: AC3
Video: 720x400 (1.80:1), 23.976 fps, XviD build 50 ~2074 kbps avg, 0.30 bit/pixel
Audio: 48 kHz, AC3 Dolby Digital, 2/0 (L,R) ch, ~192.00 kbps avg

download\Eye_of_the_Tiger_1986.DVDRip.avi
Формат : AVI
Формат/Информация : Audio Video Interleave
Размер файла : 1.46 GiB
Продолжительность : 1h 31mn
Общий поток : 2 276 Kbps
Программа кодирования : VirtualDubMod 1.5.10.3 | http://www.virtualdub-fr.org || (build 2550/release)
Библиотека кодирования : VirtualDubMod build 2550/release

Video
Идентификатор : 0
Формат : MPEG-4 Visual
Профиль формата : Advanced Simple@L5
Параметр BVOP формата : 3
Параметр QPel формата : No
Параметр GMC формата : No warppoints
Параметр матрицы формата : Default (H.263)
Идентификатор кодека : XVID
Идентификатор кодека/Подсказка : XviD
Продолжительность : 1h 31mn
Битрейт : 2 074 Kbps
Ширина : 720 pixels
Высота : 400 pixels
Соотношение сторон : 16:9
Частота кадров : 23.976 fps
Цветовое пространство : YUV
Субдискретизация насыщенности : 4:2:0
Битовая глубина : 8 bits
Тип развёртки : Progressive
Метод сжатия : Lossy
Бит/(Пиксели*Кадры) : 0.300
Размер потока : 1.33 GiB (91%)
Библиотека кодирования : XviD 1.2.1 (UTC 2008-12-04)

Audio
Идентификатор : 1
Формат : AC-3
Формат/Информация : Audio Coding 3
Расширение режима : CM (complete main)
Параметр Endianness формата : Big
Идентификатор кодека : 2000
Продолжительность : 1h 31mn
Вид битрейта : Constant
Битрейт : 192 Kbps
Каналы : 2 channels
Расположение каналов : Front: L R
Частота : 48.0 KHz
Битовая глубина : 16 bits
Метод сжатия : Lossy
Размер потока : 126 MiB (8%)
Выравнивание : Split accross interleaves
Продолжительность промежутка : 42 ms (1.00 video frame)
Время предзагрузки промежутка : 500 ms

Релиз от:


_________________
Проголосуй за трекер Открытый торрент трекер - RUS-MEDIA.ORG

Проголосуй Открытый торрент трекер - RUS-MEDIA.ORG



реклама партнёра


Вернуться к началу
 Профиль Отправить личное сообщение  
 
   Похожие торренты   Автор   Торрент   Размер 
В этой теме нет новых непрочитанных сообщений. Синдбад и Глаз Тигра / Sinbad and the Eye of the Tiger [фэнтези, боевик, приключения, 1977] BDRip, Mvo

salma3

59 | 17

1.46 ГБ

В этой теме нет новых непрочитанных сообщений. Синдбад и Глаз Тигра / Sinbad and the Eye of the Tiger [фэнтези, боевик, драма, приключения, семейный, 1977] BDRip 720p, Mvo+Avo

salma3

51 | 51

6.23 ГБ

В этой теме нет новых непрочитанных сообщений. Коготь тигра 2 / Tiger Claws II [боевик, 1996] DVDRip-AVC, Avo

salma3

27 | 3

1.97 ГБ

В этой теме нет новых непрочитанных сообщений. Коготь тигра / Tiger Claws [боевик, 1991] DVDRip-AVC, Avo

salma3

32 | 7

2.06 ГБ

В этой теме нет новых непрочитанных сообщений. Сердце тигра / Tiger Heart [боевик, комедия, приключения, 1996] DVDRip, Dvo+Avo

salma3

65 | 14

1.45 ГБ

В этой теме нет новых непрочитанных сообщений. Liliane Tiger Pack (41 ролик)(aka Lilian Tiger, Lillianne Tiger, Ivette, Lillian Tiger, Lilian, Liliane, Lucy Tiger, Lilien Tiger, Lilliane Tiger)[Straight, Anal, Double Penetration, Lesbo, Blonde, European]

salma3

12 | 148

17.18 ГБ

В этой теме нет новых непрочитанных сообщений. Команда Тигра и гора 1000 драконов / Tiger Team - Der Berg der 1000 Drachen (Петер Герсина) [2010, приключения, семейный, DVDrip] Dub

Nickolas3435

21 | 1

1.38 ГБ


Начать новую тему Ответить на тему  [ 1 сообщение ] 




Для Мосгорсуда, Роскомнадзора и рекламодателей:: mosgorsud-torrent[собачка]yandex.ru