Торрент файл
скачать торрент магнет ссылка Добавлен: 07 июн 2014, 10:07
Размер: 1.23 ГБ
Сидеров: 10
Личеров: 3
Статус: (salma3)
Автор

СообщениеДобавлено: 07 июн 2014, 10:12 

Не в сети
Зам. Админа
Аватара пользователя
Дата регистрации:
02 дек 2010, 12:39
Спасибо: 12458 / 214
Сообщения: 27968
Год выхода: 2014
Жанр:комедия
Режиссер: Стивен Брилл
В ролях: Элизабет Бэнкс, Джеймс Марсден, Джиллиан Джейкобс, Сара Райт, Итан Сапли, Билли Барр, Кен Давитян, Ларри Джиллиард мл., Альфонсо МакОли, Дэвон МакДональд

О фильме:После провала собеседования на перспективную должность на Лос-Анджелесском телевидении амбициозная телеведущая с горя уходит в загул. Проведя бурную ночь, она приходит в себя утром на улице, не имея при себе ни денег, ни паспорта, ни машины… Есть только мобильный, в котором она читает смс: «Поздравляем! Вы приняты на работу. Сегодня первый эфир».



Выпущено: США
Продолжительность: 01:34:28
Перевод: Профессиональный (полное дублирование) - Чистый звук

Качество: HDRip-AVC
Формат: MKV
Видео: MPEG4 Video (H264) 792x328 (127:53) 23.976fps 1 500 Kbps
Аудио: Dolby AC3 48000Hz 6ch 384kbps
Субтитры: Английские
Cемпл
General
Unique ID : 180624393312904763605529988511602573346 (0x87E2FE269EFB8EE0ADDE86A6EF500022)
Complete name : D:\Ф.М\Блондинка в эфире.mkv
Format : Matroska
Format version : Version 2
File size : 1.23 GiB
Duration : 1h 34mn
Overall bit rate : 1 860 Kbps
Movie name : Walk of Shame. 2014
Writing application : XviD4PSP 6.0 / 53.6.0
Writing library : XviD4PSP 6.0 / 53.6.0

Video
ID : 1
Format : AVC
Format/Info : Advanced Video Codec
Format profile : High@L4.1
Format settings, CABAC : Yes
Format settings, ReFrames : 3 frames
Codec ID : V_MPEG4/ISO/AVC
Duration : 1h 34mn
Bit rate : 1 500 Kbps
Width : 792 pixels
Height : 328 pixels
Display aspect ratio : 2.40:1
Original display aspect ratio : 2.40:1
Frame rate mode : Constant
Frame rate : 23.976 fps
Color space : YUV
Chroma subsampling : 4:2:0
Bit depth : 8 bits
Scan type : Progressive
Bits/(Pixel*Frame) : 0.241
Stream size : 972 MiB (77%)
Title : CHD
Writing library : x264 core 116 r2019M 9cc407d
Encoding settings : cabac=1 / ref=3 / deblock=1:-1:-1 / analyse=0x3:0x133 / me=hex / subme=8 / psy=1 / psy_rd=1.00:0.15 / mixed_ref=1 / me_range=16 / chroma_me=1 / trellis=1 / 8x8dct=1 / cqm=0 / deadzone=21,11 / fast_pskip=1 / chroma_qp_offset=-3 / threads=8 / sliced_threads=0 / nr=0 / decimate=1 / interlaced=0 / bluray_compat=0 / constrained_intra=0 / bframes=3 / b_pyramid=1 / b_adapt=2 / b_bias=0 / direct=3 / weightb=1 / open_gop=0 / weightp=2 / keyint=230 / keyint_min=23 / scenecut=40 / intra_refresh=0 / rc_lookahead=40 / rc=abr / mbtree=1 / bitrate=1500 / ratetol=1.0 / qcomp=0.60 / qpmin=10 / qpmax=51 / qpstep=4 / ip_ratio=1.40 / aq=1:1.00
Language : English
Default : Yes
Forced : No

Audio
ID : 2
Format : AC-3
Format/Info : Audio Coding 3
Mode extension : CM (complete main)
Format settings, Endianness : Big
Codec ID : A_AC3
Duration : 1h 34mn
Bit rate mode : Constant
Bit rate : 384 Kbps
Channel(s) : 6 channels
Channel positions : Front: L C R, Side: L R, LFE
Sampling rate : 48.0 KHz
Bit depth : 16 bits
Compression mode : Lossy
Stream size : 259 MiB (21%)
Title : Line
Language : Russian
Default : Yes
Forced : No

Text #1
ID : 3
Format : UTF-8
Codec ID : S_TEXT/UTF8
Codec ID/Info : UTF-8 Plain Text
Title : Full
Language : English
Default : Yes
Forced : No

Text #2
ID : 4
Format : UTF-8
Codec ID : S_TEXT/UTF8
Codec ID/Info : UTF-8 Plain Text
Title : SDH
Language : English
Default : Yes
Forced : No




Релиз от:




реклама партнёра


Вернуться к началу
 Профиль  
 
   Похожие торренты   Автор   Торрент   Размер 
В этой теме нет новых непрочитанных сообщений. Блондинка в эфире / Walk of Shame [Комедия, 2014] HDRip, Dub [iTunes]

Dracon

1279 | 26

1.37 ГБ

В этой теме нет новых непрочитанных сообщений. Блондинка в эфире / Walk of Shame [Комедия, 2014] DVD5, Dub [Лицензия]

Dracon

41 | 3

4.21 ГБ

В этой теме нет новых непрочитанных сообщений. Блондинка в эфире / Walk of Shame [Комедия, 2014] BDRip 1080p, Dub+Sub [Лицензия]

Dracon

169 | 13

8.2 ГБ

В этой теме нет новых непрочитанных сообщений. Блондинка в эфире / Walk of Shame [Комедия, 2014] Blu-ray 1080p, Dub+Sub [Лицензия | US-Transfer]

Dracon

24 | 5

29.45 ГБ

В этой теме нет новых непрочитанных сообщений. Блондинка в эфире / Walk of Shame [Комедия, 2014] BDRip 1080p, Dub+Sub [iTunes]

Dracon

302 | 20

7.59 ГБ

В этой теме нет новых непрочитанных сообщений. Блондинка в эфире / Walk of Shame [Комедия, 2014] BDRip 720p, Dub [iTunes]

Dracon

172 | 4

4.69 ГБ

В этой теме нет новых непрочитанных сообщений. Superнянь / Babysitting [комедия, 2014] HDRip, dub [чистый звук]

Dracon

40 | 2

1.37 ГБ


Начать новую тему Ответить на тему  [ 1 сообщение ] 




Для Мосгорсуда, Роскомнадзора и рекламодателей:: mosgorsud-torrent[собачка]yandex.ru