Торрент файл
скачать торрент магнет ссылка Добавлен: 06 июн 2014, 21:16
Размер: 1.36 ГБ
Сидеров: 20
Личеров: 3
Статус: (salma3)
Автор

СообщениеДобавлено: 06 июн 2014, 21:16 

Не в сети
Супермодератор
Аватара пользователя
Дата регистрации:
15 фев 2012, 16:44
Возраст: 27
Спасибо: 5139 / 2089
Сообщения: 17425
Кара / Плеть / Scourge

Год выхода: 2008
Жанр: ужасы, фантастика, детектив
Режиссер: Джонас Куастел

В ролях: Расселл Феррье, Робин Ледоукс, Ник Ринд, Джейсон Хардер, Алан ЛеГрос, Марина Паскуа, Шарон Бертшилд, Паул Вигано, Русс Болл

О фильме:
Древнее зло в течении полутора столетий было заточено в заброшенной церкви. Но благодаря стечению обстоятельств оно вырвалось на свободу. Теперь между жителями маленького городка и монстром, жаждущим свежей крови, стоят лишь Скотт и Джесси. Молодые люди пытаются остановить истребление жителей и в трудные минуты находят поддержку в своих вновь вспыхнувших друг к другу чувствах.



Страна: США, Канада
Продолжительность: 01:30:00
Перевод: Профессиональный [многоголосый]

Файл
Качество: DVDRip
Формат файла: AVI
Видео кодек: XviD
Аудио кодек: AC3
Видео: 704x384, 1713 kbps, 23,976 fps, 0.264 Bits/(Pixel*Frame)
Звук: AC3, 48 kHz, 448 kbps, 6 ch

General
Complete name : F:Plet.2008.DVDRip.avi
Format : AVI
Format/Info : Audio Video Interleave
File size : 1.36 GiB
Duration : 1h 29mn
Overall bit rate : 2 170 Kbps
Writing application : VirtualDubMod 1.5.10.2 (build 2540/release)
Writing library : VirtualDubMod build 2540/release

Video
ID : 0
Format : MPEG-4 Visual
Format profile : Advanced Simple@L5
Format settings, BVOP : 2
Format settings, QPel : No
Format settings, GMC : No warppoints
Format settings, Matrix : Default (MPEG)
Muxing mode : Packed bitstream
Codec ID : XVID
Codec ID/Hint : XviD
Duration : 1h 29mn
Bit rate : 1 713 Kbps
Width : 704 pixels
Height : 384 pixels
Display aspect ratio : 1.85:1
Frame rate : 23.976 fps
Color space : YUV
Chroma subsampling : 4:2:0
Bit depth : 8 bits
Scan type : Progressive
Compression mode : Lossy
Bits/(Pixel*Frame) : 0.264
Stream size : 1.08 GiB (79%)
Writing library : XviD 1.2.0.dev47 (UTC 2006-11-01)

Audio
ID : 1
Format : AC-3
Format/Info : Audio Coding 3
Mode extension : CM (complete main)
Format settings, Endianness : Big
Codec ID : 2000
Duration : 1h 29mn
Bit rate mode : Constant
Bit rate : 448 Kbps
Channel(s) : 6 channels
Channel positions : Front: L C R, Side: L R, LFE
Sampling rate : 48.0 KHz
Bit depth : 16 bits
Compression mode : Lossy
Stream size : 288 MiB (21%)
Alignment : Split accross interleaves
Interleave, duration : 42 ms (1.00 video frame)
Interleave, preload duration : 500 ms



_________________



реклама партнёра


Вернуться к началу
 Профиль Отправить личное сообщение  
 
   Похожие торренты   Автор   Торрент   Размер 
В этой теме нет новых непрочитанных сообщений. Птицы войны / Warbirds [ужасы, фантастика, триллер, детектив, военный, 2008] BDRip, Mvo+Avo

salma3

1 | 2

1.46 ГБ

В этой теме нет новых непрочитанных сообщений. Кара небесная / Switch [Фэнтези, комедия, драма, мелодрама, криминал, 1991] DVDRip, Dub

salma3

71 | 8

1.46 ГБ

В этой теме нет новых непрочитанных сообщений. Dividium - The Scourge [2013, Progressive Metal, MP3]

PriZraK

0 | 1

139.99 МБ

В этой теме нет новых непрочитанных сообщений. Bepcия 1.0 / Оnе Роint О [фантастика, ужасы, триллер, драма, детектив, 2004] DVDRip, Mvo

salma3

37 | 12

1.42 ГБ

В этой теме нет новых непрочитанных сообщений. Bodyfarm - The Coming Scourge [2013, Death Metal, MP3]

PriZraK

0 | 1

86.42 МБ

В этой теме нет новых непрочитанных сообщений. Возвращение в спящий лагерь / Return to Sleepaway Camp [Ужасы, детектив, 2008] DVDRip, Dvo

salma3

22 | 3

746.47 МБ

В этой теме нет новых непрочитанных сообщений. Смертельный друг / Deadly Friend [ужасы, фантастика, драма, детектив, 1986] DVDRip, Mvo

salma3

0 | 3

1.37 ГБ


Начать новую тему Ответить на тему  [ 1 сообщение ] 




Для Мосгорсуда, Роскомнадзора и рекламодателей:: mosgorsud-torrent[собачка]yandex.ru