Торрент файл
скачать торрент магнет ссылка Добавлен: 06 июн 2014, 18:07
Размер: 1.35 ГБ
Сидеров: 1
Личеров: 5
Статус: (salma3)
Автор

СообщениеДобавлено: 06 июн 2014, 18:07 

Не в сети
Зам. Админа
Аватара пользователя
Дата регистрации:
02 дек 2010, 12:39
Спасибо: 12461 / 214
Сообщения: 27968
Год выпуска: 2014
Страна: США
Жанр: драма, криминал
Продолжительность: 01:44:12
Озвучивание: Профессиональное (дублированное) Чистый звук
Режиссёр: Рэймонд Де Фелитта

В ролях: Майкл Питт, Нина Арианда, Энди Гарсиа, Рэй Романо, Бёрт Янг, Гриффин Данн, Майкл Рисполи, Аида Туртурро, Фрэнк Уэйли, Кэти Мориарти

О фильме: Парочка молодых влюбленных, мечтая скопить деньги на свадьбу, решает совершить серию дерзких ограблений клубов, где собираются мафиози. Их план прост — чтобы они ни натворили, мафия не будет жаловаться в полицию. Местные «братаны» не могут поверить своим глазам, когда их обчищают до нитки какие-то «сопляки». Больше того, случайно, у них похищают важную улику, которой очень интересуется ФБР. Теперь за налетчиками начинается настоящая охота…


Качество: HDRip-AVC
Формат: MKV
Видео: MPEG4 Video (H264) 800x448 (199:112) 23.976fps 1 500 Kbps
Аудио: Dolby AC3 48000Hz 6ch 384kbps
Субтитры: English
Скачать: Семпл

General
Unique ID : 193580519155728227391899406520555444060 (0x91A240793080620260FF649237FC975C)
Complete name : D:\Фильмы !\Гангста Love.mkv
Format : Matroska
Format version : Version 2
File size : 1.35 GiB
Duration : 1h 44mn
Overall bit rate : 1 859 Kbps
Movie name : Rob the Mob 2014 HDR BDRip 1080p
Writing application : XviD4PSP 6.0 / 53.6.0
Writing library : XviD4PSP 6.0 / 53.6.0

Video
ID : 1
Format : AVC
Format/Info : Advanced Video Codec
Format profile : High@L4.1
Format settings, CABAC : Yes
Format settings, ReFrames : 3 frames
Codec ID : V_MPEG4/ISO/AVC
Duration : 1h 44mn
Bit rate : 1 500 Kbps
Width : 800 pixels
Height : 448 pixels
Display aspect ratio : 16:9
Original display aspect ratio : 16:9
Frame rate mode : Constant
Frame rate : 23.976 fps
Color space : YUV
Chroma subsampling : 4:2:0
Bit depth : 8 bits
Scan type : Progressive
Bits/(Pixel*Frame) : 0.175
Stream size : 1.05 GiB (77%)
Title : Rob the Mob 2014 HDR BDRip 1080p
Writing library : x264 core 116 r2019M 9cc407d
Encoding settings : cabac=1 / ref=3 / deblock=1:-1:-1 / analyse=0x3:0x133 / me=hex / subme=7 / psy=1 / psy_rd=1.00:0.15 / mixed_ref=1 / me_range=16 / chroma_me=1 / trellis=1 / 8x8dct=1 / cqm=0 / deadzone=21,11 / fast_pskip=1 / chroma_qp_offset=-3 / threads=8 / sliced_threads=0 / nr=0 / decimate=1 / interlaced=0 / bluray_compat=0 / constrained_intra=0 / bframes=3 / b_pyramid=1 / b_adapt=2 / b_bias=0 / direct=3 / weightb=1 / open_gop=0 / weightp=2 / keyint=230 / keyint_min=23 / scenecut=40 / intra_refresh=0 / rc_lookahead=40 / rc=abr / mbtree=1 / bitrate=1500 / ratetol=1.0 / qcomp=0.60 / qpmin=10 / qpmax=51 / qpstep=4 / ip_ratio=1.40 / aq=1:1.00
Language : English
Default : Yes
Forced : No

Audio
ID : 2
Format : AC-3
Format/Info : Audio Coding 3
Mode extension : CM (complete main)
Format settings, Endianness : Big
Codec ID : A_AC3
Duration : 1h 44mn
Bit rate mode : Constant
Bit rate : 384 Kbps
Channel(s) : 6 channels
Channel positions : Front: L C R, Side: L R, LFE
Sampling rate : 48.0 KHz
Bit depth : 16 bits
Compression mode : Lossy
Stream size : 286 MiB (21%)
Title : Dub
Language : Russian
Default : Yes
Forced : No

Text
ID : 3
Format : UTF-8
Codec ID : S_TEXT/UTF8
Codec ID/Info : UTF-8 Plain Text
Title : Full
Language : English
Default : Yes
Forced : No


Релиз от:




реклама партнёра


Вернуться к началу
 Профиль  
 
   Похожие торренты   Автор   Торрент   Размер 
В этой теме нет новых непрочитанных сообщений. Гангста Love / Rob the Mob (Рэймонд Де Фелитта) [2014, драма, криминал, HDRip | Чистый звук] Dub

Nickolas3435

880 | 48

1.45 ГБ

В этой теме нет новых непрочитанных сообщений. Гангста Love / Rob the Mob [драма, криминал, 2014] WEB-DLRip, dub [Чистый звук]

Dracon

2257 | 34

1.36 ГБ

В этой теме нет новых непрочитанных сообщений. Гангста Love / Rob the Mob [драма, криминал, 2014] WEB-DL 1080p, dub [Чистый звук]

Dracon

304 | 6

2.93 ГБ

В этой теме нет новых непрочитанных сообщений. Гангста Love / Rob the Mob [драма, криминал, 2014] BDRip 1080p, dub [Чистый звук]

Dracon

406 | 14

7.93 ГБ

В этой теме нет новых непрочитанных сообщений. Гангста Love / Rob the Mob [драма, криминал, 2014] HDRip, Dub [Лицензия]

Dracon

248 | 7

2.05 ГБ

В этой теме нет новых непрочитанных сообщений. Гангста / Love Rob the Mob [драма, криминал, 2014] DVD5, Dub [Лицензия]

Dracon

51 | 7

4.17 ГБ

В этой теме нет новых непрочитанных сообщений. Гангста Love / Rob the Mob [драма, криминал, 2014] Blu-Ray Remux 1080p, Dub+Sub [Лицензия]

Dracon

32 | 2

14.04 ГБ


Начать новую тему Ответить на тему  [ 1 сообщение ] 




Для Мосгорсуда, Роскомнадзора и рекламодателей:: mosgorsud-torrent[собачка]yandex.ru