Торрент файл
скачать торрент магнет ссылка Добавлен: 05 июн 2014, 14:32
Размер: 1.46 ГБ
Сидеров: 2174
Личеров: 89
Статус: (Dracon)
Автор

СообщениеДобавлено: 05 июн 2014, 14:32 

Не в сети
Зам. Админа
Аватара пользователя
Дата регистрации:
02 дек 2010, 12:39
Спасибо: 12581 / 214
Сообщения: 28049


Год выпуска: 2013
Страна: США / Dreambridge Films, Muskat Filmed Properties LLC, Rough House (I), Worldview Entertainment
Жанр: драма, криминал
Продолжительность: 01:57:44

Перевод: Профессиональный (многоголосый закадровый)
Cубтитры: нет
Оригинальная аудиодорожка: нет

Режиссер: Дэвид Гордон Грин / David Gordon Green

В ролях: Николас Кейдж, Тай Шеридан, Гари Поултер, Ронни Джин Блевинс, Адриэн Мишлер, Брайан Мейс, Адж Уилсон МакФол, Сью Рок, Хезер Кафка, Бренда Исаак Бут...

Описание: В сонном городке на Миссисипи встретились два одиноких человека. Юный Гари поставил крест на своем будущем, не зная, как отвязаться от отца-алкоголика; бывший бандит Джо не желает вспоминать о прошлом. Неожиданно для самих себя они становятся друзьями.


Качество: HDRip
Формат: AVI
Видео: 720x304 (2.35:1), XViD 1314 Кбит/сек / 23.976 fps / Бит/(Пиксели*Кадры) : 0.250
Аудио: Dolby Digital Audio Russian 448 kbps 5.1 / 48 kHz / 448 kbps

Общее
Полное имя : Djo.2013.P.HDRip.1.46GB.New-Team.avi
Формат : AVI
Формат/Информация : Audio Video Interleave
Размер файла : 1,46 Гбайт
Продолжительность : 1 ч. 57 м.
Общий поток : 1771 Кбит/сек
Программа кодирования : VirtualDubMod 1.5.10.3 | http://www.virtualdub-fr.org || (build 2550/release)
Библиотека кодирования : VirtualDubMod build 2550/release

Видео
Идентификатор : 0
Формат : MPEG-4 Visual
Профиль формата : Advanced Simple@L5
Параметр BVOP формата : 2
Параметр QPel формата : Нет
Параметр GMC формата : Без точки перехода
Параметр матрицы формата : Выборочная
Идентификатор кодека : XVID
Идентификатор кодека/Подсказка : XviD
Продолжительность : 1 ч. 57 м.
Битрейт : 1314 Кбит/сек
Ширина : 720 пикселей
Высота : 304 пикселя
Соотношение сторон : 2,35:1
Частота кадров : 23,976 кадра/сек
Цветовое пространство : YUV
Субдискретизация насыщенности : 4:2:0
Битовая глубина : 8 бит
Тип развёртки : Прогрессивная
Метод сжатия : С потерями
Бит/(Пиксели*Кадры) : 0.250
Размер потока : 1,08 Гбайт (74%)
Библиотека кодирования : XviD 1.2.1 (UTC 2008-12-04)

Аудио
Идентификатор : 1
Формат : AC-3
Формат/Информация : Audio Coding 3
Расширение режима : CM (complete main)
Параметр Endianness формата : Big
Идентификатор кодека : 2000
Продолжительность : 1 ч. 57 м.
Вид битрейта : Постоянный
Битрейт : 448 Кбит/сек
Каналы : 6 каналов
Расположение каналов : Front: L C R, Side: L R, LFE
Частота : 48,0 КГц
Битовая глубина : 16 бит
Метод сжатия : С потерями
Размер потока : 377 Мбайт (25%)
Выравнивание : Разделение по промежуткам
Продолжительность промежутка : 42 мс. (1,00 видеокадр)
Время предзагрузки промежутка : 500 мс.






реклама партнёра


Вернуться к началу
 Профиль  
 
   Похожие торренты   Автор   Торрент   Размер 
В этой теме нет новых непрочитанных сообщений. Теория заговора / Zulu [триллер, драма, криминал, 2013] HDRip, Mvo [лицензия]

Dracon

89 | 2

1.46 ГБ

В этой теме нет новых непрочитанных сообщений. Волк с Уолл-стрит / The Wolf of Wall Street [драма, комедия, криминал, биография, 2013] HDRip, Dub [лицензия]

Dracon

13 | 2

2.05 ГБ

В этой теме нет новых непрочитанных сообщений. На гребне / Drift [драма, спорт, 2013] HDRip, Mvo [Лицензия]

Dracon

8 | 3

1.46 ГБ

В этой теме нет новых непрочитанных сообщений. Гангста Love / Rob the Mob [драма, криминал, 2014] HDRip, Dub [Лицензия]

Dracon

248 | 7

2.05 ГБ

В этой теме нет новых непрочитанных сообщений. Тропы / Tracks [драма, приключения, биография, 2013] HDRip, Mvo [лицензия]

Dracon

343 | 12

1.46 ГБ

В этой теме нет новых непрочитанных сообщений. Долгое падение / A Long Way Down [Драма, Комедия, 2013] HDRip, Dub [Лицензия]

Dracon

2079 | 18

1.46 ГБ

В этой теме нет новых непрочитанных сообщений. Третья персона / Third Person [драма, мелодрама, 2013] HDRip, Mvo [Лицензия]

Dracon

33 | 2

2.06 ГБ


Начать новую тему Ответить на тему  [ 1 сообщение ] 




Для Мосгорсуда, Роскомнадзора и рекламодателей:: mosgorsud-torrent[собачка]yandex.ru