Торрент файл
скачать торрент магнет ссылка Добавлен: 05 июн 2014, 00:13
Размер: 1.46 ГБ
Сидеров: 24
Личеров: 5
Статус: (salma3)
Автор

СообщениеДобавлено: 05 июн 2014, 00:13 

Не в сети
Супермодератор
Аватара пользователя
Дата регистрации:
15 фев 2012, 16:44
Возраст: 28
Спасибо: 6577 / 2143
Сообщения: 43865
Городская полиция / Metro

Год выпуска: 1997
Жанр: боевик, триллер, драма
Режиссер: Томас Картер / Thomas Carter

В ролях:
Эдди Мёрфи / Eddie Murphy, Ким Мийори / Kim Miyori, Арт Эванс / Art Evans, Джеймс Карпентер / James Carpenter, Майкл Рапапорт / Michael Rapaport, Донал Лог / Donal Logue, Джени Чуа / Jeni Chua, Майкл Уинкотт / Michael Wincott, Кармен Эджого / Carmen Ejogo...

Описание:
Эдди Мэрфи играет роль полицейского, остроумного, крутого. Его зовут Скотт Роупер, и он лучший специалист по переговорам с преступниками, захватывающими заложников. Сюжет строится на его противостоянии с похитителем драгоценностей Майклом Корда, убившим его партнера и лучшего друга. Роупер сумел поймать его, но Корда бежит из тюрьмы, берет в заложницы любимую девушку Скотта по имени Ронни. После этого рассвирепевший Роупер и отданный ему в ученики спецназовец и великолепный снайпер Кевин МакКолл вдвоем выручают девушку из рук умного психопата…



Страна: США
Продолжительность: 01:52:44
Перевод: Профессиональный (полное дублирование)
Оригинальная аудиодорожка: английский
Cубтитры: русский, английский

Файл
Качество: HDTVRip
Формат файла: AVI
Видео кодек: XviD
Аудио кодек: AC3
Видео: 720x400 (16:9), 25,000 fps, XviD ~ 1263 kbps avg, 0.175 bit/pixel
Аудио: 48 kHz, Dolby Digital AC3 2.0, 192 kbps [DUB]
Аудио: 48 kHz, Dolby Digital AC3 5.1, 384 kbps [Английский]
Субтитры: SoftSub (srt)

Общее
Полное имя : Gorodskaya.policiya.1997.HDTVRip_[New-team]_by_AVP_Studio.avi
Формат : AVI
Формат/Информация : Audio Video Interleave
Размер файла : 1,46 Гбайт
Продолжительность : 1 ч. 52 м.
Общий поток : 1853 Кбит/сек
Программа кодирования : VirtualDubModRus 1.5.10.2 (build 2542/release)
Библиотека кодирования : VirtualDubMod build 2542/release

Видео
Идентификатор : 0
Формат : MPEG-4 Visual
Профиль формата : Advanced Simple@L5
Параметр BVOP формата : 1
Параметр QPel формата : Нет
Параметр GMC формата : Без точки перехода
Параметр матрицы формата : Выборочная
Идентификатор кодека : XVID
Идентификатор кодека/Подсказка : XviD
Продолжительность : 1 ч. 52 м.
Битрейт : 1263 Кбит/сек
Ширина : 720 пикселей
Высота : 400 пикселей
Соотношение сторон : 16:9
Частота кадров : 25,000 кадров/сек
Цветовое пространство : YUV
Субдискретизация насыщенности : 4:2:0
Битовая глубина : 8 бит
Тип развёртки : Прогрессивная
Метод сжатия : С потерями
Бит/(Пиксели*Кадры) : 0.175
Размер потока : 1018 Мбайт (68%)
Библиотека кодирования : XviD 73

Аудио #1
Идентификатор : 1
Формат : AC-3
Формат/Информация : Audio Coding 3
Расширение режима : CM (complete main)
Параметр Endianness формата : Big
Идентификатор кодека : 2000
Продолжительность : 1 ч. 52 м.
Вид битрейта : Постоянный
Битрейт : 192 Кбит/сек
Каналы : 2 канала
Расположение каналов : Front: L R
Частота : 48,0 КГц
Битовая глубина : 16 бит
Метод сжатия : С потерями
Размер потока : 155 Мбайт (10%)
Выравнивание : Разделение по промежуткам
Продолжительность промежутка : 40 мс. (1,00 видеокадр)
Время предзагрузки промежутка : 500 мс.

Аудио #2
Идентификатор : 2
Формат : AC-3
Формат/Информация : Audio Coding 3
Расширение режима : CM (complete main)
Параметр Endianness формата : Big
Идентификатор кодека : 2000
Продолжительность : 1 ч. 52 м.
Вид битрейта : Постоянный
Битрейт : 384 Кбит/сек
Каналы : 6 каналов
Расположение каналов : Front: L C R, Side: L R, LFE
Частота : 48,0 КГц
Битовая глубина : 16 бит
Метод сжатия : С потерями
Размер потока : 310 Мбайт (21%)
Выравнивание : Разделение по промежуткам
Продолжительность промежутка : 40 мс. (1,00 видеокадр)
Время предзагрузки промежутка : 500 мс


Раздача от:


_________________
Проголосуй за трекер Открытый торрент трекер - RUS-MEDIA.ORG

Проголосуй Открытый торрент трекер - RUS-MEDIA.ORG



реклама партнёра


Вернуться к началу
 Профиль Отправить личное сообщение  
 
   Похожие торренты   Автор   Торрент   Размер 
В этой теме нет новых непрочитанных сообщений. Морская полиция: Спецотдел / NCIS: Naval Criminal Investigative Service [15х08 из 24] [Боевик, триллер, драма, 2017] HDTVRip 720p, Dvo [Sunshine Studio]

salma3

0 | 0

6.62 ГБ

В этой теме нет новых непрочитанных сообщений. Убийство в Белом доме / Murder at 1600 [боевик, триллер, драма, 1997] HDTVRip, Dub

salma3

67 | 13

1.46 ГБ

В этой теме нет новых непрочитанных сообщений. Городская рапсодия (1-2 серии из 2) (Петр Степин) [2016, мелодрама, HDTVRip]

marya111

178 | 21

2.73 ГБ

В этой теме нет новых непрочитанных сообщений. Морская полиция: Лос-Анджелес / NCIS: Los Angeles [09x01-07 из 22] [Криминал, триллер, драма, 2017] HDTVRip 720p, Dvo [SunshineStudio]

salma3

0 | 0

6.78 ГБ

В этой теме нет новых непрочитанных сообщений. Морская полиция: Спецотдел / NCIS: Naval Criminal Investigative Service [S11] [Боевик, триллер, драма, 2013] WEBDLRip, Mvo [FOX]

salma3

9 | 10

12.95 ГБ

В этой теме нет новых непрочитанных сообщений. Морская полиция: Спецотдел / NCIS: Naval Criminal Investigative Service [S10] [Боевик, триллер, драма, 2012] WEBDLRip, Mvo [FOX]

salma3

7 | 14

12.95 ГБ

В этой теме нет новых непрочитанных сообщений. Святой / The Saint [боевик, триллер, мелодрама, приключения, 1997] HDTVRip, Mvo [НТВ+]

salma3

64 | 4

1.46 ГБ


Начать новую тему Ответить на тему  [ 1 сообщение ] 




Для Мосгорсуда, Роскомнадзора и рекламодателей:: mosgorsud-torrent[собачка]yandex.ru