Торрент файл
скачать торрент магнет ссылка Добавлен: 04 июн 2014, 21:03
Размер: 1.46 ГБ
Сидеров: 5
Личеров: 2
Статус: (salma3)
Автор

СообщениеДобавлено: 04 июн 2014, 21:03 

В сети
Супермодератор
Аватара пользователя
Дата регистрации:
15 фев 2012, 16:44
Возраст: 28
Спасибо: 6569 / 2137
Сообщения: 43777
Метаморфозы: Фактор чужого / Metamorphosis: The Alien Factor

Год выпуска: 1990
Жанр: Ужасы, фантастика
Режиссер: Гленн Такакджян / Glenn Takakjian

В ролях: Мэтт Кулис, Патрик Барнс, Тара Ли, Дианна Флаэрти, Кэтрин Ромэйн, Маркус Пауэлл, Тони Гиганте, Грег Салливан, Джордж Дж. Коллуччи, Аллен Льюис Рикмен

О фильме: Генетическая лаборатория получает ткань пришельца. Из неё выделяют ДНК и начинают проводить опыты по скрещиванию с животными. Та ведёт себя неожиданно, полностью перерабатывая чужеродное ей ДНК и заменяя своим, благодаря чему появляются монструозные зверюшки, становящиеся очередными образцами для экспериментов. Во время одного из опытов учёного кусает такая тварь, и у него начинается интенсивное заражение. Его быстро помещают на койку и наблюдают за тем, как тот постепенно трансформируется, всё меньше напоминая себя самого. В конце концов монстр проходит стадию очередной трансформации, в результате которой нападает сначала на сотрудника лаборатории, а затем и на охранника, пришедшего на шум, после чего смывается. Все находящиеся в лаборатории сотрудники станут желанной пищей для рыщущего по коридорам генетического монстра…



Страна: США
Продолжительность: 01:36:47
Перевод: Авторский (одноголосый) [Дольский]

Файл
Качество: DVDRip [исх. DVD5]
Формат файла: AVI
Видео кодек: XviD
Аудио кодек: AC3
Video: 640x480 (1.33:1), 29.970 fps, XviD build 50 ~1896 kbps avg, 0.21 bit/pixel
Audio: 48 kHz, AC3 Dolby Digital, 2/0 (L,R) ch, ~256 kbps

Время Раздачи 11-00 до 16-00 + 20-00 до 03-00

Downloads\Metamorphosis_1990.DVDRip.avi
Format : AVI
Format/Info : Audio Video Interleave
File size : 1.46 GiB
Duration : 1h 36mn
Overall bit rate : 2 164 Kbps
Writing application : VirtualDubMod 1.5.10.3 | http://www.virtualdub-fr.org || (build 2550/release)
Writing library : VirtualDubMod build 2550/release

Video
ID : 0
Format : MPEG-4 Visual
Format profile : Advanced Simple@L5
Format settings, BVOP : 3
Format settings, QPel : No
Format settings, GMC : No warppoints
Format settings, Matrix : Default (H.263)
Codec ID : XVID
Codec ID/Hint : XviD
Duration : 1h 36mn
Bit rate : 1 896 Kbps
Width : 640 pixels
Height : 480 pixels
Display aspect ratio : 4:3
Frame rate : 29.970 fps
Color space : YUV
Chroma subsampling : 4:2:0
Bit depth : 8 bits
Scan type : Progressive
Compression mode : Lossy
Bits/(Pixel*Frame) : 0.206
Stream size : 1.28 GiB (88%)
Writing library : XviD 1.2.1 (UTC 2008-12-04)

Audio
ID : 1
Format : AC-3
Format/Info : Audio Coding 3
Mode extension : CM (complete main)
Format settings, Endianness : Big
Codec ID : 2000
Duration : 1h 36mn
Bit rate mode : Constant
Bit rate : 256 Kbps
Channel(s) : 2 channels
Channel positions : Front: L R
Sampling rate : 48.0 KHz
Bit depth : 16 bits
Compression mode : Lossy
Stream size : 177 MiB (12%)
Alignment : Split accross interleaves
Interleave, duration : 33 ms (1.00 video frame)
Interleave, preload duration : 500 ms

Релиз от:


_________________
Проголосуй за трекер Открытый торрент трекер - RUS-MEDIA.ORG

Проголосуй Открытый торрент трекер - RUS-MEDIA.ORG



реклама партнёра


Вернуться к началу
 Профиль Отправить личное сообщение  
 
   Похожие торренты   Автор   Торрент   Размер 
В этой теме нет новых непрочитанных сообщений. Прикрытие-Один: Фактор Аида / Covert One: The Hades Factor [Боевик, триллер, драма, детектив, 2006] DVDRip, Mvo

salma3

107 | 34

2.74 ГБ

В этой теме нет новых непрочитанных сообщений. TS Factor #3 / Транс-Фактор #3 (2016) WEB-DL

amadei

0 | 1

2.74 ГБ

В этой теме нет новых непрочитанных сообщений. Phoenix Marie - Фактор Задницы 5 / Ass Factor 5 (2013) WEB-DL 1080p

salma3

12 | 1

1.04 ГБ

В этой теме нет новых непрочитанных сообщений. Фактор холода / Chill Factor [Боевик, триллер, комедия, приключения, 1999] HDRip-AVC, Dvo+Avo+Sub

salma3

27 | 2

2.17 ГБ

В этой теме нет новых непрочитанных сообщений. Вирусный фактор / Jik zin / The Viral Factor [Боевик, триллер, драма, 2012] BDRip 1080p, Avo

salma3

79 | 28

12.73 ГБ

В этой теме нет новых непрочитанных сообщений. Пришелец из глубины / Alien degli abissi [фантастика, ужасы, 1989] DVDRip, Avo

salma3

58 | 9

1.46 ГБ

В этой теме нет новых непрочитанных сообщений. Чужие против ниндзя / Alien vs. Ninja [ужасы, боевик, фантастика, комедия, 2010] DVDRip, Mvo

salma3

4 | 4

1.37 ГБ


Начать новую тему Ответить на тему  [ 1 сообщение ] 




Для Мосгорсуда, Роскомнадзора и рекламодателей:: mosgorsud-torrent[собачка]yandex.ru