Торрент файл
скачать торрент магнет ссылка Добавлен: 04 июн 2014, 20:13
Размер: 1.46 ГБ
Сидеров: 89
Личеров: 6
Статус: (salma3)
Автор

СообщениеДобавлено: 04 июн 2014, 20:13 

Не в сети
Супермодератор
Аватара пользователя
Дата регистрации:
15 фев 2012, 16:44
Возраст: 27
Спасибо: 5143 / 2090
Сообщения: 17478
Деньги решают все / Money Talks

Год выхода: 1997
Жанр: комедия, боевик
Режиссер: Бретт Рэтнер / Brett Ratner

В ролях: Крис Такер, Чарли Шин, Хэзер Локлир, Элиз Нил, Пол Сорвино, Дэвид Ли МакЛэйн, Виктор Феррерира, Гари Бриггс, Ларри Хэнкин, Нэйтан Андерсон

О фильме:
Криминальный телерепортер Джеймс Рассел становится виновником того, что мелкого чернокожего спекулянта Фрэнка Хэтчета сначала арестовывают, а потом обвиняют в убийстве полицейских при побеге из тюремного автобуса. Скрывающийся от полиции Фрэнк вызывает репортера на встречу и требует от него помощи. Джеймс соглашается при условии, что беглец даст ему эксклюзивное сенсационное интервью... Дальше все как в кино: погони, перестрелки и хэппи энд...



Страна: СШАa
Продолжительность: 01:35:43
Перевод: Профессиональный (многоголосый закадровый) [R5]

Файл
Качество: WEB-DLRip
Формат файла: AVI
Видео кодек: XviD
Аудио кодек: AC3
Видео: 720x304, 23,976 fps, 1729 kbps
Звук: AC3, 6 ch, 448 kbps, 48.0 KHz

Общее
Полное имя : Money.Talks.1997.WEB-DLRip.avi
Формат : AVI
Формат/Информация : Audio Video Interleave
Размер файла : 1,46 Гбайт
Продолжительность : 1 ч. 35 м.
Общий поток : 2186 Кбит/сек
Программа кодирования : VirtualDubMod 1.5.10.3 | http://www.virtualdub-fr.org || (build 2550/release)
Библиотека кодирования : VirtualDubMod build 2550/release

Видео
Идентификатор : 0
Формат : MPEG-4 Visual
Профиль формата : Advanced Simple@L5
Параметр BVOP формата : 1
Параметр QPel формата : Нет
Параметр GMC формата : Без точки перехода
Параметр матрицы формата : Выборочная
Идентификатор кодека : XVID
Идентификатор кодека/Подсказка : XviD
Продолжительность : 1 ч. 35 м.
Битрейт : 1729 Кбит/сек
Ширина : 720 пикс.
Высота : 304 пикс.
Соотношение сторон : 2,35:1
Частота кадров : 23,976 кадр/сек
Цветовое пространство : YUV
Подвыборка цветности : 4:2:0
Битовая глубина : 8 бит
Тип развёртки : Прогрессивная
Метод сжатия : С потерями
Бит/(Пиксели*Кадры) : 0.329
Размер потока : 1,16 Гбайт (79%)
Библиотека кодирования : XviD 73

Аудио
Идентификатор : 1
Формат : AC-3
Формат/Информация : Audio Coding 3
Расширение режима : CM (complete main)
Идентификатор кодека : 2000
Продолжительность : 1 ч. 35 м.
Вид битрейта : Постоянный
Битрейт : 448 Кбит/сек
Канал(ы) : 6 канала(ов)
Расположение каналов : Front: L C R, Side: L R, LFE
Частота : 48,0 КГц
Битовая глубина : 16 бит
Метод сжатия : С потерями
Размер потока : 307 Мбайт (20%)
Выравнивание : Разделение по промежуткам
Продолжительность промежутка : 42 мс. (1,00 видеокадр)
Время предзагрузки промежутка : 500 ms


Релиз от: Leon-masl


_________________



реклама партнёра


Вернуться к началу
 Профиль Отправить личное сообщение  
 
   Похожие торренты   Автор   Торрент   Размер 
В этой теме нет новых непрочитанных сообщений. Деньги решают все / Money Talks [комедия, боевик, 1997] WEB-DL 720p, Mvo

salma3

26 | 2

3.09 ГБ

В этой теме нет новых непрочитанных сообщений. Деньги, деньги, еще деньги / Больше денег / Mo' Money [Комедия, 1992] WEB-DLRip, Avo

salma3

16 | 6

1.46 ГБ

В этой теме нет новых непрочитанных сообщений. Тяжелые деньги / Трудные деньги / Run for the Money / Hard Cash [Боевик, триллер, криминал. 2002] WEB-DLRip, Mvo

salma3

44 | 27

1.46 ГБ

В этой теме нет новых непрочитанных сообщений. Карманные деньги / Milk money [Комедия, мелодрама, 1994] WEB-DLRip-AVC, Mvo+Avo+Sub

salma3

61 | 2

2.76 ГБ

В этой теме нет новых непрочитанных сообщений. Легкие деньги / Easy Money [комедия, 1983] BDRip, Mvo

salma3

19 | 1

1.45 ГБ

В этой теме нет новых непрочитанных сообщений. Безумные деньги / Funny Money [Комедия, 2006] Blu-ray Remux 1080i, Mvo+Dvo

salma3

40 | 7

13.1 ГБ

В этой теме нет новых непрочитанных сообщений. Лёгкие деньги / Easy Money [комедия, 1983] BDRip 1080p, Dvo+Avo+Sub

salma3

49 | 26

9.09 ГБ


Начать новую тему Ответить на тему  [ 1 сообщение ] 




Для Мосгорсуда, Роскомнадзора и рекламодателей:: mosgorsud-torrent[собачка]yandex.ru