Торрент файл
скачать торрент магнет ссылка Добавлен: 03 июн 2014, 21:03
Размер: 744.43 МБ
Сидеров: 671
Личеров: 27
Статус: (Dracon)
Автор

СообщениеДобавлено: 03 июн 2014, 21:03 

Не в сети
Зам. Админа
Аватара пользователя
Дата регистрации:
02 дек 2010, 12:39
Спасибо: 12623 / 214
Сообщения: 28012
Год выпуска: 2014
Страна: США, Франция
Жанр: Боевик, триллер, драма, криминал
Продолжительность: 01:57:02
Перевод: Дубляж - Лицензия
Cубтитры: нет

Режиссер: МакДжи / McG

В ролях: Кевин Костнер, Эмбер Хёрд, Хейли Стайнфелд, Конни Нильсен, Томас Лемаркус, Рихард Заммель, Марк Андреони, Бруно Риччи, Йонас Блоке, Эрик Эбони...

Описание: В секретной лаборатории ученые разработали препарат, который позволяет человеку справиться с любой неизлечимой болезнью. Руководство спецслужб предлагает принять это лекарство экс-агенту спецслужб Итану Раннеру, которому врачи объявили смертельный диагноз. Но он должен выполнить еще одно задание, которое, впрочем, может стоить ему жизни. Теперь вокруг Раннера начинают происходить странные вещи. Что это — галлюцинации, побочный эффект от таблеток или мир действительно полон ужаса и кошмара?

Качество видео: HDRip
Формат видео: AVI
Видео: 640x272 (2.35:1), 23.976 fps, XviD build 50 ~751 kbps avg, 0.18 bit/pixel
Аудио: 48 kHz, MPEG Layer 3, 2 ch, ~128.00 kbps avg

General
Format : AVI
Format/Info : Audio Video Interleave
File size : 744 MiB
Duration : 1h 57mn
Overall bit rate : 889 Kbps
Writing application : VirtualDubMod 1.5.10.2 (build 2540/release)
Writing library : VirtualDubMod build 2540/release

Video
ID : 0
Format : MPEG-4 Visual
Format profile : Advanced Simple@L5
Format settings, BVOP : 1
Format settings, QPel : No
Format settings, GMC : No warppoints
Format settings, Matrix : Custom
Codec ID : XVID
Codec ID/Hint : XviD
Duration : 1h 57mn
Bit rate : 752 Kbps
Width : 640 pixels
Height : 272 pixels
Display aspect ratio : 2.35:1
Frame rate : 23.976 fps
Color space : YUV
Chroma subsampling : 4:2:0
Bit depth : 8 bits
Scan type : Progressive
Compression mode : Lossy
Bits/(Pixel*Frame) : 0.180
Stream size : 630 MiB (85%)
Writing library : XviD 1.2.1 (UTC 2008-12-04)

Audio
ID : 1
Format : MPEG Audio
Format version : Version 1
Format profile : Layer 3
Codec ID : 55
Codec ID/Hint : MP3
Duration : 1h 57mn
Bit rate mode : Constant
Bit rate : 128 Kbps
Channel(s) : 2 channels
Sampling rate : 48.0 KHz
Compression mode : Lossy
Stream size : 107 MiB (14%)
Alignment : Aligned on interleaves
Interleave, duration : 42 ms (1.00 video frame)
Interleave, preload duration : 504 ms
Writing library : LAME3.99r
Encoding settings : -m s -V 4 -q 2 -lowpass 17 -b 128




реклама партнёра


Вернуться к началу
 Профиль  
 
   Похожие торренты   Автор   Торрент   Размер 
В этой теме нет новых непрочитанных сообщений. Снайпер: Идеальное убийство / Sniper: Ultimate Kill [боевик, триллер, драма, 2017] HDRip, Mvo [Лицензия]

salma3

0 | 0

1.37 ГБ

В этой теме нет новых непрочитанных сообщений. Снайпер: Идеальное убийство / Sniper: Ultimate Kill [боевик, триллер, драма, 2017] BDRip, Mvo [Лицензия]

salma3

0 | 0

1.46 ГБ

В этой теме нет новых непрочитанных сообщений. Снайпер: Идеальное убийство / Sniper: Ultimate Kill [боевик, триллер, драма, 2017] BDRip-AVC, Mvo [Лицензия]

salma3

362 | 99

2.42 ГБ

В этой теме нет новых непрочитанных сообщений. Снайпер: Идеальное убийство / Sniper: Ultimate Kill [Боевик, триллер, драма, 2017] Blu-ray EUR 1080p, Mvo [Лицензия]

salma3

71 | 90

24.81 ГБ

В этой теме нет новых непрочитанных сообщений. Снайпер: Идеальное убийство / Sniper: Ultimate Kill [боевик, триллер, драма, 2017] BDRip, Mvo [Лицензия]

salma3

236 | 13

746.58 МБ

В этой теме нет новых непрочитанных сообщений. Снайпер: Идеальное убийство / Sniper: Ultimate Kill [боевик, триллер, драма, 2017] BDRip-AVC, Mvo [Лицензия]

salma3

23 | 7

747 МБ

В этой теме нет новых непрочитанных сообщений. Снайпер: Идеальное убийство / Sniper: Ultimate Kill [боевик, триллер, драма, 2017] BDRip 720p, Mvo [Лицензия]

salma3

421 | 288

6.57 ГБ


Начать новую тему Ответить на тему  [ 1 сообщение ] 




Для Мосгорсуда, Роскомнадзора и рекламодателей:: mosgorsud-torrent[собачка]yandex.ru