Торрент файл
скачать торрент магнет ссылка Добавлен: 02 июн 2014, 00:59
Размер: 1.46 ГБ
Сидеров: 8
Личеров: 2
Статус: (salma3)
Автор

СообщениеДобавлено: 02 июн 2014, 01:00 

В сети
Супермодератор
Аватара пользователя
Дата регистрации:
15 фев 2012, 16:44
Возраст: 28
Спасибо: 7163 / 2147
Сообщения: 61700
Карающий удар / Full Impact

Год выпуска: 1993
Жанр: Боевик
Режиссер: Дэвид Хьюи / David Huey

В ролях: Гэри Дэниелс, Кент Дюканон, Линда Беннет, Ричард Рабаго, Род Кеи, Рауль Реформина, Джеральд Окамура, Грасиэлла Касильянс, Мэйли Дэниелс, Шэйн Дэниелс

Описание:
Его звали коротко: Джей Ти. Отслужив верой-правдой в полиции, он решает бороться с преступностью в одиночку. Главное в жизни для него - азарт погони и ужас затравленной жертвы. Он - настоящий профессионал. Но даже он не знает, с каким порождением ада ему придется столкнуться в этот раз. Ведь в городе орудует садист, убивающий голыми руками. Охотник становится добычей, а добыча - охотником. Знаменитый Гэри Дэниелс вновь воплощает образ героя одиночки в этом фильме, до предела насыщенном единоборствами и поединками. Кто говорил, что победа будет легкой? Да и будет ли она, эта победа?



Страна: США
Продолжительность: 01:27:15
Перевод: Авторский (одноголосый) [Визгунов Сергей]

Файл
Качество: DVDRip [исх. DVD5]
Формат файла: AVI
Видео кодек: XviD
Аудио кодек: AC3
Video: 640x480 (1.33:1), 29.970 fps, XviD build 50 ~2194 kbps avg, 0.24 bit/pixel
Audio: 48 kHz, AC3 Dolby Digital, 2/0 (L,R) ch, ~192 kbps

Время Раздачи 11-00 до 16-00 + 20-00 до 03-00


Downloads\Full_Impact_1993.DVDRip.avi
Format : AVI
Format/Info : Audio Video Interleave
File size : 1.46 GiB
Duration : 1h 27mn
Overall bit rate : 2 398 Kbps
Writing application : VirtualDubMod 1.5.10.3 | http://www.virtualdub-fr.org || (build 2550/release)
Writing library : VirtualDubMod build 2550/release

Video
ID : 0
Format : MPEG-4 Visual
Format profile : Advanced Simple@L5
Format settings, BVOP : 3
Format settings, QPel : No
Format settings, GMC : No warppoints
Format settings, Matrix : Default (H.263)
Codec ID : XVID
Codec ID/Hint : XviD
Duration : 1h 27mn
Bit rate : 2 194 Kbps
Width : 640 pixels
Height : 480 pixels
Display aspect ratio : 4:3
Frame rate : 29.970 fps
Color space : YUV
Chroma subsampling : 4:2:0
Bit depth : 8 bits
Scan type : Progressive
Compression mode : Lossy
Bits/(Pixel*Frame) : 0.238
Stream size : 1.34 GiB (92%)
Writing library : XviD 1.2.1 (UTC 2008-12-04)

Audio
ID : 1
Format : AC-3
Format/Info : Audio Coding 3
Mode extension : CM (complete main)
Format settings, Endianness : Big
Codec ID : 2000
Duration : 1h 27mn
Bit rate mode : Constant
Bit rate : 192 Kbps
Channel(s) : 2 channels
Channel positions : Front: L R
Sampling rate : 48.0 KHz
Bit depth : 16 bits
Compression mode : Lossy
Stream size : 120 MiB (8%)
Alignment : Split accross interleaves
Interleave, duration : 33 ms (1.00 video frame)
Interleave, preload duration : 500 ms

Релиз от:


_________________
Проголосуй за трекер Открытый торрент трекер - RUS-MEDIA.ORG

Проголосуй Открытый торрент трекер - RUS-MEDIA.ORG


Вернуться к началу
 Профиль Отправить личное сообщение  
 
   Похожие торренты   Автор   Торрент   Размер 
В этой теме нет новых непрочитанных сообщений. Последний удар / Final Impact [боевик, драма, 1992] DVDRip, Mvo

salma3

23 | 3

1.47 ГБ

В этой теме нет новых непрочитанных сообщений. Максимальный удар / Maximum Impact [боевик, комедия, 2017] WEBDLRip, Dub

salma3

927 | 109

1.37 ГБ

В этой теме нет новых непрочитанных сообщений. Максимальный удар / Maximum Impact [боевик, комедия, 2017] Blu-Ray 1080p [Лицензия]

salma3

12 | 24

19.99 ГБ

В этой теме нет новых непрочитанных сообщений. Максимальный удар / Maximum Impact [Боевик, комедия, 2017] WEB-DLRip, Dub [iTunes]

salma3

3102 | 579

1.46 ГБ

В этой теме нет новых непрочитанных сообщений. Максимальный удар / Maximum Impact [боевик, комедия, 2017] WEB-DL 1080p, Dub [iTunes]

salma3

528 | 232

3.62 ГБ

В этой теме нет новых непрочитанных сообщений. Максимальный удар / Maximum Impact [боевик, комедия, 2017] WEB-DL 720p, Dub [iTunes]

salma3

205 | 90

3.24 ГБ

В этой теме нет новых непрочитанных сообщений. Двойной удар / Double Impact [Боевик, триллер, драма, 1991] HDRip-AVC, Mvo

salma3

0 | 0

745.31 МБ


Начать новую тему Ответить на тему  [ 1 сообщение ] 




Для Мосгорсуда, Роскомнадзора и рекламодателей:: mosgorsud-torrent[собачка]yandex.ru
cron