Торрент файл
скачать торрент магнет ссылка Добавлен: 01 июн 2014, 21:55
Размер: 1.57 ГБ
Сидеров: 311
Личеров: 19
Статус: (salma3)
Автор

СообщениеДобавлено: 01 июн 2014, 21:55 

Не в сети
Супермодератор
Аватара пользователя
Дата регистрации:
15 фев 2012, 16:44
Возраст: 27
Спасибо: 5135 / 2089
Сообщения: 17409
Темная сила / Dark Power

Год выхода: 2013
Жанр: Триллер
Режиссер: Джон Милтон Брэнтон

В ролях: Шон Патрик Флэнери, Кристанна Локен, Крис Кармак, Ричард Глисон, Джеймс С. Бёрнс, Кевин Добсон, Ким Джексон, Сьюэлл Уитни, Эндрю Джеймс Аллен, Роберт Т. Баррет

О фильме:
Во время избирательной компании совершается дерзкое убийство действующего мэра. Подозревая, что местные власти могут быть слишком коррумпированы ФБР подключает к расследованию двух своих агентов: циничного Джона Арчера и настырную Милу Драйвер. Очень скоро этим двоим удается обнаружить, что дело намного сложнее, чем предполагалось. Агенты оказываются вовлечены в большую игру. Теперь они должны не только раскрыть дело, следы которого ведут к одной очень влиятельной преступной группировке, но и сохранить свои жизни, поскольку на них уже началась охота.



Страна: США
Продолжительность: 01:34:52
Перевод: Профессиональный [многоголосый]

Файл
Качество: HDRip
Формат файла: AVC
Видео кодек: MPEG-4
Аудио кодек: AC3
Видео: 1920 Кбит/с, 1024x576, 25.000 кадр/с
Звук: Русский (АС3, 6 ch, 448 Кбит/с)

Семпл

Общее
Полное имя : Temnaja.sila.2013.x264.HDTVRip(AVC).MediaClub.mkv
Формат : Matroska
Версия формата : Version 2
Размер файла : 1,57 Гбайт
Продолжительность : 1 ч. 34 м.
Общий поток : 2369 Кбит/сек
Название фильма : MediaClub
Дата кодирования : UTC 2014-06-01 16:32:57
Программа кодирования : mkvmerge v5.4.0 ('Piper') built on Mar 10 2012 13:34:39
Библиотека кодирования : libebml v1.2.3 + libmatroska v1.3.0

Видео
Идентификатор : 1
Формат : AVC
Формат/Информация : Advanced Video Codec
Профиль формата : High@L4.1
Параметр CABAC формата : Да
Параметр ReFrames формата : 9 кадров
Идентификатор кодека : V_MPEG4/ISO/AVC
Продолжительность : 1 ч. 34 м.
Битрейт : 1920 Кбит/сек
Ширина : 1024 пикселя
Высота : 576 пикселей
Соотношение сторон : 16:9
Режим частоты кадров : Постоянный
Частота кадров : 25,000 кадров/сек
Цветовое пространство : YUV
Субдискретизация насыщенности : 4:2:0
Битовая глубина : 8 бит
Тип развёртки : Прогрессивная
Бит/(Пиксели*Кадры) : 0.130
Размер потока : 1,24 Гбайт (79%)
Библиотека кодирования : x264 core 125 r2208 d9d2288
Настройки программы : cabac=1 / ref=9 / deblock=1:-3:-2 / analyse=0x3:0x133 / me=umh / subme=10 / psy=1 / psy_rd=1.00:0.20 / mixed_ref=1 / me_range=48 / chroma_me=1 / trellis=2 / 8x8dct=1 / cqm=0 / deadzone=21,11 / fast_pskip=0 / chroma_qp_offset=-3 / threads=6 / lookahead_threads=1 / sliced_threads=0 / nr=0 / decimate=0 / interlaced=0 / bluray_compat=0 / constrained_intra=0 / bframes=8 / b_pyramid=2 / b_adapt=2 / b_bias=0 / direct=3 / weightb=1 / open_gop=0 / weightp=2 / keyint=250 / keyint_min=25 / scenecut=40 / intra_refresh=0 / rc=2pass / mbtree=0 / bitrate=1920 / ratetol=1.0 / qcomp=0.60 / qpmin=0 / qpmax=69 / qpstep=4 / cplxblur=20.0 / qblur=0.5 / ip_ratio=1.40 / pb_ratio=1.30 / aq=1:1.00
Default : Да
Forced : Нет

Аудио
Идентификатор : 2
Формат : AC-3
Формат/Информация : Audio Coding 3
Расширение режима : CM (complete main)
Параметр Endianness формата : Big
Идентификатор кодека : A_AC3
Продолжительность : 1 ч. 34 м.
Вид битрейта : Постоянный
Битрейт : 448 Кбит/сек
Каналы : 6 каналов
Расположение каналов : Front: L C R, Side: L R, LFE
Частота : 48,0 КГц
Битовая глубина : 16 бит
Метод сжатия : С потерями
Размер потока : 304 Мбайт (19%)
Язык : Russian
Default : Да
Forced : Нет


Релиз от:


_________________



реклама партнёра


Вернуться к началу
 Профиль Отправить личное сообщение  
 
   Похожие торренты   Автор   Торрент   Размер 
В этой теме нет новых непрочитанных сообщений. Темная сила / Dark Power [Триллер, 2013] HDTVRip 1080p, Mvo

salma3

71 | 10

3.68 ГБ

В этой теме нет новых непрочитанных сообщений. Темная сила / Dark Power [Триллер, 2013] HDTVRip 720p, Mvo

salma3

171 | 9

2.34 ГБ

В этой теме нет новых непрочитанных сообщений. Темная гавань / Dark Harbor [триллер, драма, 1998] DVDRip, Dvo

salma3

0 | 1

1.37 ГБ

В этой теме нет новых непрочитанных сообщений. Темная башня / Dark Tower [ужасы, триллер, 1989] SATRip, Dvo

salma3

31 | 4

1.57 ГБ

В этой теме нет новых непрочитанных сообщений. Темная бухта / Dark Cove [ужасы, триллер, 2015] HDRip, Avo

salma3

116 | 8

1.13 ГБ

В этой теме нет новых непрочитанных сообщений. Темная половина / The Dark Half [Ужасы, триллер, 1993] BDRip 720p, Mvo+Dvo+Avo+Sub

salma3

3 | 6

11.12 ГБ

В этой теме нет новых непрочитанных сообщений. Тёмная вода / Dark Water [ужасы, триллер, драма, 2005] HDRip, Dub

salma3

136 | 11

1.45 ГБ


Начать новую тему Ответить на тему  [ 1 сообщение ] 




Для Мосгорсуда, Роскомнадзора и рекламодателей:: mosgorsud-torrent[собачка]yandex.ru