Торрент файл
скачать торрент магнет ссылка Добавлен: 01 июн 2014, 14:35
Размер: 1.46 ГБ
Сидеров: 46
Личеров: 12
Статус: (salma3)
Автор

СообщениеДобавлено: 01 июн 2014, 14:35 

Не в сети
Супермодератор
Аватара пользователя
Дата регистрации:
15 фев 2012, 16:44
Возраст: 28
Спасибо: 6594 / 2145
Сообщения: 44279
Максимальное Ускорение / Maximum Overdrive

Жанр: боевик, триллер, драма
Год выпуска: 1986
Режиссер: Стивен Кинг / Stephen King

В ролях:
Эмилио Эстевез, Пэт Хингл, Лора Хэррингтон, Ярдли Смит, Джон Шорт, Эллен МакЭлдафф, Дж. К. Куин, Кристофер Мёрни, Холтер Грэм, Фрэнки Фэйзон...

Описание:
Когда комета Ри-М проходит через орбиту Земли и задевает ее своим хвостом, происходит глобальная катастрофа. Перестают качать насосы, выходят из строя компьютеры, электрические ножи режут домохозяек, а газонокосилки косят людей как траву. Внезапно ожившие машины из лучших друзей человека превращаются в его злейших врагов, жаждущих человеческой крови. Особенно безжалостно ведут себя огромные грузовики, давящие всех на своем пути. Горстка людей во главе с Билли Робинсоном, укрывшись от стаи взбесившихся грузовиков в здании бензозаправочной станции, готовится дать последний бой взбунтовавшимся машинам…



Страна: США
Продолжительность: 01:33:39
Перевод: Профессиональный (многоголосый, закадровый)

Файл
Качество: DVDRip
Формат файла: AVI
Видео кодек: XviD
Аудио кодек: AC3
Видео: 720x304 (2.35:1), 25 fps, XviD ~ 1770 kbps avg, 0.323 bit/pixel
Аудио: 48 kHz, Dolby Digital AC3 5,1, 448 kbps

Общее
Полное имя : E:Tracker2014Максимальное ускорениеMaksimalnoe.uskorenie.1986.DVDRip_[New-team]_by_AVP_Studio.avi
Формат : AVI
Формат/Информация : Audio Video Interleave
Размер файла : 1,46 Гбайт
Продолжительность : 1 ч. 33 м.
Общий поток : 2228 Кбит/сек
Программа кодирования : VirtualDubModRus 1.5.10.2 (build 2542/release)
Библиотека кодирования : VirtualDubMod build 2542/release

Видео
Идентификатор : 0
Формат : MPEG-4 Visual
Профиль формата : Advanced Simple@L5
Параметр BVOP формата : 1
Параметр QPel формата : Нет
Параметр GMC формата : Без точки перехода
Параметр матрицы формата : Выборочная
Идентификатор кодека : XVID
Идентификатор кодека/Подсказка : XviD
Продолжительность : 1 ч. 33 м.
Битрейт : 1770 Кбит/сек
Ширина : 720 пикселей
Высота : 304 пикселя
Соотношение сторон : 2,35:1
Частота кадров : 25,000 кадров/сек
Цветовое пространство : YUV
Субдискретизация насыщенности : 4:2:0
Битовая глубина : 8 бит
Тип развёртки : Прогрессивная
Метод сжатия : С потерями
Бит/(Пиксели*Кадры) : 0.323
Размер потока : 1,16 Гбайт (79%)
Библиотека кодирования : XviD 73

Аудио
Идентификатор : 1
Формат : AC-3
Формат/Информация : Audio Coding 3
Расширение режима : CM (complete main)
Параметр Endianness формата : Big
Идентификатор кодека : 2000
Продолжительность : 1 ч. 33 м.
Вид битрейта : Постоянный
Битрейт : 448 Кбит/сек
Каналы : 6 каналов
Расположение каналов : Front: L C R, Side: L R, LFE
Частота : 48,0 КГц
Битовая глубина : 16 бит
Метод сжатия : С потерями
Размер потока : 300 Мбайт (20%)
Выравнивание : Разделение по промежуткам
Продолжительность промежутка : 40 мс. (1,00 видеокадр)
Время предзагрузки промежутка : 500 мс


Раздача от:


_________________
Проголосуй за трекер Открытый торрент трекер - RUS-MEDIA.ORG

Проголосуй Открытый торрент трекер - RUS-MEDIA.ORG



реклама партнёра


Вернуться к началу
 Профиль Отправить личное сообщение  
 
   Похожие торренты   Автор   Торрент   Размер 
В этой теме нет новых непрочитанных сообщений. Максимальное ускорение / Maximum Overdrive [Ужасы, фантастика, боевик, триллер, 1986] BDRip 1080p, Mvo+Avo+Sub

salma3

28 | 5

7.18 ГБ

В этой теме нет новых непрочитанных сообщений. Manuel's Maximum Penetration 4 / Максимальное Проникновение Мануэля 4 (Manuel Ferrara, Jules Jordan Video) [2017 г., Gonzo, Anal, DP, 406p, DVDRip] (Ella Nova, Karissa Kane, Elena Koshka, Cherie DeVille) RD: 19.06.2017.

salma3

29 | 9

1.66 ГБ

В этой теме нет новых непрочитанных сообщений. Manuel's Maximum Penetration 4 / Максимальное Проникновение Мануэля 4 (Manuel Ferrara, Jules Jordan Video) [2017 г., Gonzo, Anal, DP, 540p, WEB-DL] (Split Scenes) (Ella Nova, Karissa Kane, Elena Koshka, Cherie DeVille) RD: 19.06.2017.

salma3

38 | 13

2.58 ГБ

В этой теме нет новых непрочитанных сообщений. Максимальный риск / Maximum Risk [Боевик, триллер, 1996] DVDRip, Mvo

salma3

1 | 0

1.46 ГБ

В этой теме нет новых непрочитанных сообщений. Подонки / Bullies [боевик, триллер, драма, 1986] DVDRip, Avo

salma3

7 | 3

1.4 ГБ

В этой теме нет новых непрочитанных сообщений. Противоборство / Opposing Force [боевик, триллер, драма, 1986] DVDRip, Avo

salma3

19 | 4

1.36 ГБ

В этой теме нет новых непрочитанных сообщений. Максимальный риск / Maximum Risk [боевик, триллер, криминал, приключения, 1996] Blu-ray, Dub+Sub

salma3

4 | 3

29.07 ГБ


Начать новую тему Ответить на тему  [ 1 сообщение ] 




Для Мосгорсуда, Роскомнадзора и рекламодателей:: mosgorsud-torrent[собачка]yandex.ru