Торрент файл
скачать торрент магнет ссылка Добавлен: 01 июн 2014, 00:17
Размер: 1.47 ГБ
Сидеров: 38
Личеров: 7
Статус: (salma3)
Автор

СообщениеДобавлено: 01 июн 2014, 00:17 

В сети
Супермодератор
Аватара пользователя
Дата регистрации:
15 фев 2012, 16:44
Возраст: 27
Спасибо: 5143 / 2090
Сообщения: 17495
Дом на холмах / A House in the Hills

Год выпуска: 1993
Жанр: Триллер
Режиссер: Кен Видерхорн

В ролях: Майкл Мэдсен, Хелен Слейтер, Джеффри Тэмбор, Джеймс Лоренсон, Элисса Давалос, Тейлор Ли, Тони Бэрри, Джеймс Нолленхофф, Маргарет Парк, Лару М. Малл

Описание: Мечтающая о карьере голливудской кинозвезды Алекс присматривает за роскошным особняком в Беверли-Хиллз во время отъезда его хозяев — богатой и несколько странной семейной пары, не подозревая, что за домом следит жаждущий отомстить его владельцам бывший заключенный Микки. И, когда ничего не подозревающая Алекс впускает полного опасного для женского сердца обаяния Микки на порог, разыгрывая перед ним роль хозяйки дома, она открывает двери самым большим неприятностям в своей жизни и одновременно самой настоящей любовной страсти.



Страна: США, Люксембург
Продолжительность: 01:26:59
Перевод1: Профессиональный двухголосый
Перевод2: авторский
Оригинальная аудиодорожка: Английская

Файл
Качество: DVDRip
Формат файла: AVI
Видео кодек: XviD
Аудио кодек: AC3
Видео: XviD, 1622 Кбит/с, 704х384
Аудио: Русский, английский (АС3, 2 ch, 192 Кбит/с)

Аудио#1: Профессиональный двухголосый
Аудио#2: Авторский (Гаврилов)
Аудио#3: Авторский (Горчаков)
Аудио#4: Английский
Общее
Полное имя : D:1АААДом на холмах.avi
Формат : AVI
Формат/Информация : Audio Video Interleave
Размер файла : 1,47 Гбайт
Продолжительность : 1 ч. 26 м.
Общий поток : 2414 Кбит/сек
Программа кодирования : VirtualDubMod 1.5.10.2 (build 2540/release)
Библиотека кодирования : VirtualDubMod build 2540/release

Видео
Идентификатор : 0
Формат : MPEG-4 Visual
Профиль формата : Advanced Simple@L5
Параметр BVOP формата : 2
Параметр QPel формата : Нет
Параметр GMC формата : Без точки перехода
Параметр матрицы формата : Default (MPEG)
Идентификатор кодека : XVID
Идентификатор кодека/Подсказка : XviD
Продолжительность : 1 ч. 26 м.
Битрейт : 1622 Кбит/сек
Ширина : 704 пикселя
Высота : 384 пикселя
Соотношение сторон : 1,85:1
Частота кадров : 23,976 кадра/сек
Цветовое пространство : YUV
Субдискретизация насыщенности : 4:2:0
Битовая глубина : 8 бит
Тип развёртки : Прогрессивная
Метод сжатия : С потерями
Бит/(Пиксели*Кадры) : 0.250
Размер потока : 1009 Мбайт (67%)
Библиотека кодирования : XviD 1.2.1 (UTC 2008-12-04)

Аудио #1
Идентификатор : 1
Формат : AC-3
Формат/Информация : Audio Coding 3
Расширение режима : CM (complete main)
Параметр Endianness формата : Big
Идентификатор кодека : 2000
Продолжительность : 1 ч. 26 м.
Вид битрейта : Постоянный
Битрейт : 192 Кбит/сек
Каналы : 2 канала
Расположение каналов : Front: L R
Частота : 48,0 КГц
Битовая глубина : 16 бит
Метод сжатия : С потерями
Размер потока : 119 Мбайт (8%)
Выравнивание : Разделение по промежуткам
Продолжительность промежутка : 42 мс. (1,00 видеокадр)
Время предзагрузки промежутка : 500 мс.

Аудио #2
Идентификатор : 2
Формат : AC-3
Формат/Информация : Audio Coding 3
Расширение режима : CM (complete main)
Параметр Endianness формата : Big
Идентификатор кодека : 2000
Продолжительность : 1 ч. 26 м.
Вид битрейта : Постоянный
Битрейт : 192 Кбит/сек
Каналы : 2 канала
Расположение каналов : Front: L R
Частота : 48,0 КГц
Битовая глубина : 16 бит
Метод сжатия : С потерями
Размер потока : 119 Мбайт (8%)
Выравнивание : Разделение по промежуткам
Продолжительность промежутка : 42 мс. (1,00 видеокадр)
Время предзагрузки промежутка : 500 мс.

Аудио #3
Идентификатор : 3
Формат : AC-3
Формат/Информация : Audio Coding 3
Расширение режима : CM (complete main)
Параметр Endianness формата : Big
Идентификатор кодека : 2000
Продолжительность : 1 ч. 26 м.
Вид битрейта : Постоянный
Битрейт : 192 Кбит/сек
Каналы : 2 канала
Расположение каналов : Front: L R
Частота : 48,0 КГц
Битовая глубина : 16 бит
Метод сжатия : С потерями
Размер потока : 119 Мбайт (8%)
Выравнивание : Разделение по промежуткам
Продолжительность промежутка : 42 мс. (1,00 видеокадр)
Время предзагрузки промежутка : 500 мс.

Аудио #4
Идентификатор : 4
Формат : AC-3
Формат/Информация : Audio Coding 3
Расширение режима : CM (complete main)
Параметр Endianness формата : Big
Идентификатор кодека : 2000
Продолжительность : 1 ч. 26 м.
Вид битрейта : Постоянный
Битрейт : 192 Кбит/сек
Каналы : 2 канала
Расположение каналов : Front: L R
Частота : 48,0 КГц
Битовая глубина : 16 бит
Метод сжатия : С потерями
Размер потока : 119 Мбайт (8%)
Выравнивание : Разделение по промежуткам
Продолжительность промежутка : 42 мс. (1,00 видеокадр)
Время предзагрузки промежутка : 500 мс.



Релиз:


_________________



реклама партнёра


Вернуться к началу
 Профиль Отправить личное сообщение  
 
   Похожие торренты   Автор   Торрент   Размер 
В этой теме нет новых непрочитанных сообщений. Кошмар дома на холмах 2 / Coffin Baby [ужасы, 2013] HDRip, dvo

Dracon

6 | 3

1.45 ГБ

В этой теме нет новых непрочитанных сообщений. Вслепую / Blind Side [триллер, 1993] DVDRip-AVC, Avo

salma3

38 | 25

2.66 ГБ

В этой теме нет новых непрочитанных сообщений. Околдованный / Hexed [комедия, триллер, 1993] DVDRip, Avo

salma3

26 | 3

1.46 ГБ

В этой теме нет новых непрочитанных сообщений. Террор в Беверли Хиллз / Terror in Beverly Hills [Боевик, 1989] DVDRip, Avo

salma3

0 | 2

1.36 ГБ

В этой теме нет новых непрочитанных сообщений. Убийство по заказу / The Hit List [боевик, триллер, 1993] DVDRip, Mvo

salma3

181 | 19

1.36 ГБ

В этой теме нет новых непрочитанных сообщений. Вслепую / Blind Side [Триллер, криминал, 1993] DVDRip, Avo

salma3

33 | 7

1.45 ГБ

В этой теме нет новых непрочитанных сообщений. Охрана / La scorta [Триллер, драма, криминал, 1993] DVDRip, Dvo

salma3

88 | 1

1.46 ГБ


Начать новую тему Ответить на тему  [ 1 сообщение ] 




Для Мосгорсуда, Роскомнадзора и рекламодателей:: mosgorsud-torrent[собачка]yandex.ru