Торрент файл
скачать торрент магнет ссылка Добавлен: 31 май 2014, 14:41
Размер: 2.16 ГБ
Сидеров: 63
Личеров: 15
Статус: (salma3)
Автор

СообщениеДобавлено: 31 май 2014, 14:41 

Не в сети
Супермодератор
Аватара пользователя
Дата регистрации:
15 фев 2012, 16:44
Возраст: 27
Спасибо: 5143 / 2090
Сообщения: 17478
Год выхода: 2012
Жанр: Триллер
Режиссер: Джонатан Зарантонелло
В ролях: Барбара Стил, Рэй Уайз, Эрика Лихсен, Хезер Лангенкамп, Эллери Спрейберри, Джулия Путнам, Камилла Китон, Пи Джей Соулз

О фильме:
Анна, одержимая бабочками элегантная дама, подружилась с маленькой девочкой Джули. Поначалу обеспокоенная их дружбой мама Джули позже договаривается с Анной, чтобы та присматривала за ее дочерью. Любопытная Джули начинает исследовать все уголки квартиры Анны, открывая ее страшный секрет, скрытый за дверями комнаты, в которую Анна никому не разрешает заходить…



Страна: Италия, США
Студия: ACHAB Film, Emergency Exit Pictures, Wiseacre Films
Продолжительность: 01:25:00
Перевод: Дублированный

Файл
Кодек: MPEG-4 AVC
Качество: HDTVRip 720p
Видео: 3000 Кбит/с, 1280x544, 25.000 кадр/с
Звук:
Аудио #1: Русский (AC3, 6 ch, 448 Кбит/с)
Аудио #2: Английский (AC3, 2 ch, 192 Кбит/с)

Семпл


Общее
Полное имя : Komnata.babochek.2012.x264.HDTVRip(720p).MediaClub.mkv
Формат : Matroska
Версия формата : Version 2
Размер файла : 2,16 Гбайт
Продолжительность : 1 ч. 25 м.
Общий поток : 3638 Кбит/сек
Дата кодирования : UTC 2014-05-31 08:04:53
Программа кодирования : mkvmerge v5.4.0 ('Piper') built on Mar 10 2012 13:34:39
Библиотека кодирования : libebml v1.2.3 + libmatroska v1.3.0

Видео
Идентификатор : 1
Формат : AVC
Формат/Информация : Advanced Video Codec
Профиль формата : High@L4.1
Параметр CABAC формата : Да
Параметр ReFrames формата : 9 кадров
Идентификатор кодека : V_MPEG4/ISO/AVC
Продолжительность : 1 ч. 25 м.
Битрейт : 3000 Кбит/сек
Ширина : 1280 пикселей
Высота : 544 пикселя
Соотношение сторон : 2,35:1
Режим частоты кадров : Постоянный
Частота кадров : 25,000 кадров/сек
Цветовое пространство : YUV
Субдискретизация насыщенности : 4:2:0
Битовая глубина : 8 бит
Тип развёртки : Прогрессивная
Бит/(Пиксели*Кадры) : 0.172
Размер потока : 1,74 Гбайт (80%)
Библиотека кодирования : x264 core 125 r2208 d9d2288
Настройки программы : cabac=1 / ref=9 / deblock=1:-2:-2 / analyse=0x3:0x133 / me=umh / subme=10 / psy=1 / psy_rd=1.00:0.15 / mixed_ref=1 / me_range=32 / chroma_me=1 / trellis=2 / 8x8dct=1 / cqm=0 / deadzone=21,11 / fast_pskip=0 / chroma_qp_offset=-3 / threads=6 / lookahead_threads=1 / sliced_threads=0 / nr=0 / decimate=0 / interlaced=0 / bluray_compat=0 / constrained_intra=0 / bframes=8 / b_pyramid=2 / b_adapt=2 / b_bias=0 / direct=3 / weightb=1 / open_gop=0 / weightp=2 / keyint=250 / keyint_min=25 / scenecut=40 / intra_refresh=0 / rc=2pass / mbtree=0 / bitrate=3000 / ratetol=1.0 / qcomp=0.60 / qpmin=0 / qpmax=69 / qpstep=4 / cplxblur=20.0 / qblur=0.5 / ip_ratio=1.40 / pb_ratio=1.30 / aq=1:0.80
Default : Да
Forced : Нет

Аудио #1
Идентификатор : 2
Формат : AC-3
Формат/Информация : Audio Coding 3
Расширение режима : CM (complete main)
Параметр Endianness формата : Big
Идентификатор кодека : A_AC3
Продолжительность : 1 ч. 25 м.
Вид битрейта : Постоянный
Битрейт : 448 Кбит/сек
Каналы : 6 каналов
Расположение каналов : Front: L C R, Side: L R, LFE
Частота : 48,0 КГц
Битовая глубина : 16 бит
Метод сжатия : С потерями
Размер потока : 272 Мбайт (12%)
Язык : Russian
Default : Да
Forced : Нет

Аудио #2
Идентификатор : 3
Формат : AC-3
Формат/Информация : Audio Coding 3
Расширение режима : CM (complete main)
Параметр Endianness формата : Big
Идентификатор кодека : A_AC3
Продолжительность : 1 ч. 25 м.
Вид битрейта : Постоянный
Битрейт : 192 Кбит/сек
Каналы : 2 канала
Расположение каналов : Front: L R
Частота : 48,0 КГц
Битовая глубина : 16 бит
Метод сжатия : С потерями
Задержка видео : 8 с. 0 мс.
Размер потока : 117 Мбайт (5%)
Язык : English
Default : Нет
Forced : Нет


Релиз от:


_________________



реклама партнёра


Вернуться к началу
 Профиль Отправить личное сообщение  
 
   Похожие торренты   Автор   Торрент   Размер 
В этой теме нет новых непрочитанных сообщений. Комната страха / Panic Room [триллер, драма, криминал, 2002] WEB-DL 720p, Dub+Mvo+Sub

salma3

26 | 6

4.05 ГБ

В этой теме нет новых непрочитанных сообщений. Мотель / Сумка / Комната 13 / Человек с сумкой / The Bag Man / Motel Room 13 / Motel [триллер, криминал, 2014] BDRip 720p, dvo+sub

Dracon

145 | 10

5.66 ГБ

В этой теме нет новых непрочитанных сообщений. Комната с видом / A Room with a View [драма, мелодрама, 1985] BDRip 720p, Mvo

salma3

14 | 3

5.66 ГБ

В этой теме нет новых непрочитанных сообщений. Комната / The Room [триллер, драма, мистика, 2006] DVDRip, Mvo

salma3

80 | 4

1.37 ГБ

В этой теме нет новых непрочитанных сообщений. Мотель / Сумка / Комната 13 / Человек с сумкой / The Bag Man / Motel Room 13 / Motel [триллер, криминал, 2014] HDRip, dvo

Dracon

555 | 26

1.45 ГБ

В этой теме нет новых непрочитанных сообщений. Комната / Room [Драма, экранизация, 2015] WEB-DLRip, mvo

Dracon

34 | 2

1.37 ГБ

В этой теме нет новых непрочитанных сообщений. Комната с загадками / Riddle Room [ужасы, 2016] WEB-DLRip, Avo

salma3

712 | 47

1.45 ГБ


Начать новую тему Ответить на тему  [ 1 сообщение ] 




Для Мосгорсуда, Роскомнадзора и рекламодателей:: mosgorsud-torrent[собачка]yandex.ru