Торрент файл
скачать торрент магнет ссылка Добавлен: 30 май 2014, 16:39
Размер: 1.45 ГБ
Сидеров: 13
Личеров: 4
Статус: (salma3)
Автор

СообщениеДобавлено: 30 май 2014, 16:39 

Не в сети
Супермодератор
Аватара пользователя
Дата регистрации:
15 фев 2012, 16:44
Возраст: 27
Спасибо: 5143 / 2090
Сообщения: 17478
Скаут / The Scout

Год выхода: 1994
Жанр: драма, комедия, спорт
Режиссер: Майкл Ритчи

В ролях: Альберт Брукс, Брендан Фрейзер, Дайэнн Уист, Энн Твоми, Лейн Смит, Майкл Рапапорт, Бэрри Шебака Хенли, Джон Каподиче, Гарфилд, Луис Джиованнетти

О фильме:
Когда Эла Перколо, скаута бейсбольной лиги, отправили в наказание в рандеву по Мексике, он и не подозревал, что здесь ему удастся найти самого лучшего игрока в своей карьере. Стив Небраска — самородок, способный вытворять чудеса на поляне, подписывает с Элом контракт и в лучах славы они возвращаются в Нью-Йорк, где Стива ждет медосмотр, а Эла неожиданные результаты этого медосмотра...



Страна: США
Продолжительность: 01:41:50
Перевод: Авторский + оригинал

Файл
Качество: HDRip
Формат файла: AVI
Видео кодек: XviD
Аудио кодек: AC3
Видео: XviD, 720x384 (1.875), 1642 kbps, 23,976 fps, 0,248 bpp
Аудио №1: русский / AC3 / 2.0 / 48 kHz / 192 kbps / 16 bit |С. Визгунов|
Аудио №2: английский / AC3 / 2.0 / 48 kHz / 192 kbps / 16 bit



Format : AVI
Format/Info : Audio Video Interleave
File size : 1.45 GiB
Duration : 1h 41mn
Overall bit rate : 2 040 Kbps
Movie name : Scout.1994.XviD.HDRip
Director : Vikosol
Writing application : VirtualDubMod 1.5.10.3 | http://www.virtualdub-fr.org || (build 2550/release)

Video
ID : 0
Format : MPEG-4 Visual
Format profile : Advanced Simple@L5
Format settings, BVOP : 1
Format settings, QPel : No
Format settings, GMC : No warppoints
Format settings, Matrix : Custom
Codec ID : XVID
Codec ID/Hint : XviD
Duration : 1h 41mn
Bit rate : 1 642 Kbps
Width : 720 pixels
Height : 384 pixels
Display aspect ratio : 1.875
Frame rate : 23.976 fps
Color space : YUV
Chroma subsampling : 4:2:0
Bit depth : 8 bits
Scan type : Progressive
Compression mode : Lossy
Bits/(Pixel*Frame) : 0.248
Stream size : 1.17 GiB (80%)
Writing library : XviD 73

Audio #1
ID : 1
Format : AC-3
Format/Info : Audio Coding 3
Mode extension : CM (complete main)
Codec ID : 2000
Duration : 1h 41mn
Bit rate mode : Constant
Bit rate : 192 Kbps
Channel(s) : 2 channels
Channel positions : Front: L R
Sampling rate : 48.0 KHz
Bit depth : 16 bits
Compression mode : Lossy
Stream size : 140 MiB (9%)
Alignment : Split accross interleaves
Interleave, duration : 42 ms (1.00 video frame)
Interleave, preload duration : 500 ms

Audio #2
ID : 2
Format : AC-3
Format/Info : Audio Coding 3
Mode extension : CM (complete main)
Codec ID : 2000
Duration : 1h 41mn
Bit rate mode : Constant
Bit rate : 192 Kbps
Channel(s) : 2 channels
Channel positions : Front: L R
Sampling rate : 48.0 KHz
Bit depth : 16 bits
Compression mode : Lossy
Stream size : 140 MiB (9%)
Alignment : Split accross interleaves
Interleave, duration : 42 ms (1.00 video frame)
Interleave, preload duration : 500 ms


За исходник спасибо HDClub
За оцифровку с Визгуновым большое спасибо denis_mgn_1987


_________________



реклама партнёра


Вернуться к началу
 Профиль Отправить личное сообщение  
 
   Похожие торренты   Автор   Торрент   Размер 
В этой теме нет новых непрочитанных сообщений. Последний бойскаут / The Last Boy Scout [Боевик, триллер, комедия, 1991] BDRip 720p, 3Avo+Sub

salma3

55 | 9

7.38 ГБ

В этой теме нет новых непрочитанных сообщений. Чемпион / Pentathlon [Боевик, драма, спорт, 1994] BDRip-AVC, Mvo

salma3

14 | 0

2.66 ГБ

В этой теме нет новых непрочитанных сообщений. Любовь вне правил / Leatherheads [драма, мелодрама, комедия, спорт, 2008] HDRip, Mvo

salma3

35 | 3

1.45 ГБ

В этой теме нет новых непрочитанных сообщений. Alina West / Girl Scout Creampie Surprise (2015) HD 720p

Dile-1

2 | 2

649.4 МБ

В этой теме нет новых непрочитанных сообщений. Пьяный мастер 2 / Jui kuen II [боевик, комедия, 1994] HDRip, Mvo

salma3

37 | 4

1.46 ГБ

В этой теме нет новых непрочитанных сообщений. Три ниндзя / 3 Ninjas [комедия, семейный, спорт, 1992] HDRip, Mvo

salma3

50 | 5

1.45 ГБ

В этой теме нет новых непрочитанных сообщений. Уличный боец / Street Fighter [фантастика, боевик, комедия, приключения, 1994] HDRip, Avo

salma3

22 | 4

1.46 ГБ


Начать новую тему Ответить на тему  [ 1 сообщение ] 




Для Мосгорсуда, Роскомнадзора и рекламодателей:: mosgorsud-torrent[собачка]yandex.ru