Торрент файл
скачать торрент магнет ссылка Добавлен: 30 май 2014, 14:01
Размер: 1.46 ГБ
Сидеров: 23
Личеров: 5
Статус: (salma3)
Автор

СообщениеДобавлено: 30 май 2014, 14:01 

В сети
Супермодератор
Аватара пользователя
Дата регистрации:
15 фев 2012, 16:44
Возраст: 28
Спасибо: 6593 / 2145
Сообщения: 44209
Выход в красное / Exit in Red

Год выхода: 1996
Жанр: триллер, драма, криминал
Режиссер: Юрек Богаевич / Yurek Bogayevicz

В ролях: Микки Рурк, Аннабел Шофилд, Энтони Майкл Холл, Карре Отис, Роберт Ф. Лайонс, Дин Симона, Хэнк Гаррет, Стейси Пикрен

О фильме:
Эд Олтмен — разорившийся психиатр. Его преследуют неудачи — погиб один из пациентов. Адвокат Эда, очаровательная Кэт, разделяет все его трудности и испытывает к своему клиенту глубокие чувства. Однако они уже не взаимны: Эд влюбился в Элли, жену своего больного, коррумпированного дельца Ника Филлипса. И это стало самой большой ошибкой в его жизни…



Страна: США
Продолжительность: 01:32:57
Перевод: [color=green]Профессиональный (двухголосый закадровый)

Файл
Качество: DVDRip
Формат файла: AVI
Видео кодек: XviD
Аудио кодек: AC3
Видео: 704x400, 25.000 fps, XviD build 73 ~1794 kbps
Звук: 48 kHz, AC3 Dolby Digital, 3/2 (L,C,R,l,r) + LFE ch, ~448 kbps

Общее
Полное имя : Vihod.v.Krasnoe.DVDRip.avi
Формат : AVI
Формат/Информация : Audio Video Interleave
Размер файла : 1,46 Гбайт
Продолжительность : 1 ч. 32 м.
Общий поток : 2252 Кбит/сек
Программа кодирования : VirtualDubMod 1.5.10.3 | http://www.virtualdub-fr.org || (build 2550/release)
Библиотека кодирования : VirtualDubMod build 2550/release

Видео
Идентификатор : 0
Формат : MPEG-4 Visual
Профиль формата : Advanced Simple@L5
Параметр BVOP формата : 1
Параметр QPel формата : Нет
Параметр GMC формата : Без точки перехода
Параметр матрицы формата : Выборочная
Идентификатор кодека : XVID
Идентификатор кодека/Подсказка : XviD
Продолжительность : 1 ч. 32 м.
Битрейт : 1794 Кбит/сек
Ширина : 704 пикс.
Высота : 400 пикс.
Соотношение сторон : 16:9
Частота кадров : 25,000 кадр/сек
Цветовое пространство : YUV
Подвыборка цветности : 4:2:0
Битовая глубина : 8 бит
Тип развёртки : Прогрессивная
Метод сжатия : С потерями
Бит/(Пиксели*Кадры) : 0.255
Размер потока : 1,16 Гбайт (80%)
Библиотека кодирования : XviD 73

Аудио
Идентификатор : 1
Формат : AC-3
Формат/Информация : Audio Coding 3
Расширение режима : CM (complete main)
Идентификатор кодека : 2000
Продолжительность : 1 ч. 32 м.
Вид битрейта : Постоянный
Битрейт : 448 Кбит/сек
Канал(ы) : 6 канала(ов)
Расположение каналов : Front: L C R, Side: L R, LFE
Частота : 48,0 КГц
Битовая глубина : 16 бит
Метод сжатия : С потерями
Размер потока : 298 Мбайт (20%)
Выравнивание : Разделение по промежуткам
Продолжительность промежутка : 40 мс. (1,00 видеокадр)
Время предзагрузки промежутка : 500 ms


Релиз от: Leon-masl


_________________
Проголосуй за трекер Открытый торрент трекер - RUS-MEDIA.ORG

Проголосуй Открытый торрент трекер - RUS-MEDIA.ORG



реклама партнёра


Вернуться к началу
 Профиль Отправить личное сообщение  
 
   Похожие торренты   Автор   Торрент   Размер 
В этой теме нет новых непрочитанных сообщений. Сквозные ранения / Exit Wounds [боевик, триллер, драма, комедия, криминал, 2001] BDRip, Dub

salma3

63 | 8

1.46 ГБ

В этой теме нет новых непрочитанных сообщений. Сон младенца / The Innocent Sleep [триллер, драма, криминал, 1996] DVDRip, Dvo

salma3

22 | 4

1.46 ГБ

В этой теме нет новых непрочитанных сообщений. Шоссе / Freeway [триллер, драма, комедия, криминал, 1996] DVDRip-AVC, Mvo

salma3

42 | 16

2.86 ГБ

В этой теме нет новых непрочитанных сообщений. Выхода нет / No Exit [Боевик, триллер, 1995] DVDRip, Avo [Гаврилов]

salma3

59 | 8

1.46 ГБ

В этой теме нет новых непрочитанных сообщений. Всего один выход / Ek Hi Raasta [Боевик, триллер, приключения, 1993] DVDRip, Avo

salma3

4 | 4

1.45 ГБ

В этой теме нет новых непрочитанных сообщений. Око за око / Eye for an Eye [триллер, драма, криминал, 1996] WEB-DLRip, Dvo

salma3

14 | 3

2.18 ГБ

В этой теме нет новых непрочитанных сообщений. Око за око / Eye for an Eye [триллер, драма, криминал, 1996] WEB-DLRip, Dvo+Avo

salma3

81 | 10

1.45 ГБ


Начать новую тему Ответить на тему  [ 1 сообщение ] 




Для Мосгорсуда, Роскомнадзора и рекламодателей:: mosgorsud-torrent[собачка]yandex.ru