Торрент файл
скачать торрент магнет ссылка Добавлен: 30 май 2014, 12:02
Размер: 1.46 ГБ
Сидеров: 5
Личеров: 2
Статус: (salma3)
Автор

СообщениеДобавлено: 30 май 2014, 12:02 

Не в сети
Супермодератор
Аватара пользователя
Дата регистрации:
15 фев 2012, 16:44
Возраст: 27
Спасибо: 5139 / 2090
Сообщения: 17466
Американские горки / Switchback

Год выхода: 1997
Жанр: триллер, криминал, детектив
Режиссер: Джеб Стюарт / Jeb Stuart

В ролях: Деннис Куэйд, Дэнни Гловер, Джаред Лето, Тед Левайн, Клаудия Стеделин

О фильме:
Ожесточенная схватка между специальным агентом ФБР Фрэнком ЛаГроссом и серийным убийцей должна завершиться смертью одного из них… Полтора года Фрэнк преследовал таинственного преступника с характерным «хирургическим» почерком.
Никто не знал о нем больше, чем Фрэнк, но это были не факты, а интуиция профессионала. Между тем, убийца знал о Фрэнке все и жаждал очной дуэли. И он похищает сына Фрэнка, обозначая тем самым личностный мотив их противоборства.

Страна: США
Продолжительность: 01:58:12
Перевод: Профессиональный (многоголосый, закадровый) [СТС]

Файл
Качество: HDTVRip
Формат файла: AVI
Видео кодек: XviD
Аудио кодек: AC3
Видео: 720x304, 23.976 fps, 1570 kbps
Звук: 48 kHz, AC3, 2 ch, 192.00 kbps

Общее
Полное имя : Switchback.1997.HDTVRip.avi
Формат : AVI
Формат/Информация : Audio Video Interleave
Размер файла : 1,46 Гбайт
Продолжительность : 1 ч. 58 м.
Общий поток : 1771 Кбит/сек
Программа кодирования : VirtualDubMod 1.5.10.3 | http://www.virtualdub-fr.org || (build 2550/release)
Библиотека кодирования : VirtualDubMod build 2550/release

Видео
Идентификатор : 0
Формат : MPEG-4 Visual
Профиль формата : Advanced Simple@L5
Параметр BVOP формата : 1
Параметр QPel формата : Нет
Параметр GMC формата : Без точки перехода
Параметр матрицы формата : Выборочная
Идентификатор кодека : XVID
Идентификатор кодека/Подсказка : XviD
Продолжительность : 1 ч. 58 м.
Битрейт : 1570 Кбит/сек
Ширина : 720 пикс.
Высота : 304 пикс.
Соотношение сторон : 2,35:1
Частота кадров : 23,976 кадр/сек
Цветовое пространство : YUV
Подвыборка цветности : 4:2:0
Битовая глубина : 8 бит
Тип развёртки : Прогрессивная
Метод сжатия : С потерями
Бит/(Пиксели*Кадры) : 0.299
Размер потока : 1,30 Гбайт (89%)
Библиотека кодирования : XviD 65

Аудио
Идентификатор : 1
Формат : AC-3
Формат/Информация : Audio Coding 3
Расширение режима : CM (complete main)
Идентификатор кодека : 2000
Продолжительность : 1 ч. 58 м.
Вид битрейта : Постоянный
Битрейт : 192 Кбит/сек
Канал(ы) : 2 канала(ов)
Расположение каналов : Front: L R
Частота : 48,0 КГц
Битовая глубина : 16 бит
Метод сжатия : С потерями
Размер потока : 162 Мбайт (11%)
Выравнивание : Разделение по промежуткам
Продолжительность промежутка : 42 мс. (1,00 видеокадр)
Время предзагрузки промежутка : 500 ms


Релиз от: Leon-masl


_________________



реклама партнёра


Вернуться к началу
 Профиль Отправить личное сообщение  
 
   Похожие торренты   Автор   Торрент   Размер 
В этой теме нет новых непрочитанных сообщений. Целуя девушек / Kiss the Girls [триллер, драма, криминал, детектив, 1997] BDRip 720p, Mvo [iTunes]

salma3

47 | 4

4.37 ГБ

В этой теме нет новых непрочитанных сообщений. Целуя девушек / Kiss the Girls [триллер, драма, криминал, детектив, 1997] DVD9, 2Mvo+Dvo+2Avo+Sub

salma3

26 | 11

7.83 ГБ

В этой теме нет новых непрочитанных сообщений. Подделка / Fake [Триллер, криминал, детектив, 2011] HDTVRip, Dvo

salma3

113 | 7

1.46 ГБ

В этой теме нет новых непрочитанных сообщений. Подделка / Fake [Триллер, криминал, детектив, 2011] HDTVRip-AVC, Dvo [НТВ+]

salma3

64 | 2

1.56 ГБ

В этой теме нет новых непрочитанных сообщений. Охотник / O Cacador [s01] [драма, триллер, детектив, криминал, 2014] HDTVRip, dvo

Dracon

113 | 29

8.08 ГБ

В этой теме нет новых непрочитанных сообщений. Подделка / Fake [Триллер, криминал, детектив, 2011] HDTVRip 720p, Dvo [НТВ+]

salma3

61 | 5

2.53 ГБ

В этой теме нет новых непрочитанных сообщений. Грехопадение / Last Hours in Suburbia [триллер, криминал, детектив, 2012] HDTVRip, Dvo

salma3

129 | 9

1.46 ГБ


Начать новую тему Ответить на тему  [ 1 сообщение ] 




Для Мосгорсуда, Роскомнадзора и рекламодателей:: mosgorsud-torrent[собачка]yandex.ru