Торрент файл
скачать торрент магнет ссылка Добавлен: 30 май 2014, 09:02
Размер: 2.48 ГБ
Сидеров: 0
Личеров: 26
Статус: (salma3)
Автор

СообщениеДобавлено: 30 май 2014, 09:02 

Не в сети
Супермодератор
Аватара пользователя
Дата регистрации:
15 фев 2012, 16:44
Возраст: 28
Спасибо: 6589 / 2145
Сообщения: 44145
Охотники за сокровищами / The Monuments Men

Год выхода: 2014
Жанр: боевик, драма, военный, биография
Режиссер: Джордж Клуни

В ролях: Джордж Клуни, Мэтт Дэймон, Билл Мюррей, Джон Гудман, Жан Дюжарден, Боб Бэлабан, Хью Бонневилль, Кейт Бланшетт, Димитрий Леонидас, Юстус фон Донаньи

О фильме:
Фильм основан на реальных событиях — величайшей охоте на сокровища в истории. Во время Второй мировой войны команда из искусствоведов и хранителей музеев объединяется, чтобы спасти известные произведения искусства, похищенные нацистами, прежде чем те успеют их уничтожить.[/color]



Выпущено: США, Германия
Продолжительность: 01:58:34
Озвучивание: Дублированное [лицензия]


Файл
Качество: BDRip-AVC
Формат файла: MKV
Видео кодек: MPEG-4 AVC
Аудио кодек: AC3
Видео: MPEG-4 AVC, 2099 Кбит/с, 1024x424
Аудио: Русский, английский (AC3, 6 ch, 448 Кбит/c)
Субтитры: Русские, английские

Формат : Matroska
Версия формата : Version 4 / Version 2
Размер файла : 2,48 Гбайт
Продолжительность : 1 ч. 58 м.
Общий поток : 2997 Кбит/сек
Название фильма : The.Monuments.Men.2014.x264.D.BDRip.(AVC)
Дата кодирования : UTC 2014-05-29 20:33:43
Программа кодирования : mkvmerge v6.9.1 ('Blue Panther') 64bit built on Apr 18 2014 18:23:38
Библиотека кодирования : libebml v1.3.0 + libmatroska v1.4.1

Видео
Идентификатор : 1
Формат : AVC
Формат/Информация : Advanced Video Codec
Профиль формата : High@L4.1
Параметр CABAC формата : Да
Параметр ReFrames формата : 11 кадров
Идентификатор кодека : V_MPEG4/ISO/AVC
Продолжительность : 1 ч. 58 м.
Битрейт : 2099 Кбит/сек
Ширина : 1024 пикселя
Высота : 424 пикселя
Соотношение сторон : 2,40:1
Режим частоты кадров : Постоянный
Частота кадров : 23,976 кадра/сек
Цветовое пространство : YUV
Субдискретизация насыщенности : 4:2:0
Битовая глубина : 8 бит
Тип развёртки : Прогрессивная
Бит/(Пиксели*Кадры) : 0.202
Размер потока : 1,69 Гбайт (68%)
Заголовок : The.Monuments.Men.2014.x264.D.BDRip.(AVC).by.StarbirS
Библиотека кодирования : x264 core 138 r2358 9e941d1
Настройки программы : cabac=1 / ref=11 / deblock=1:-3:-3 / analyse=0x3:0x133 / me=umh / subme=11 / psy=1 / psy_rd=1.00:0.20 / mixed_ref=1 / me_range=32 / chroma_me=1 / trellis=2 / 8x8dct=1 / cqm=0 / deadzone=21,11 / fast_pskip=1 / chroma_qp_offset=-3 / threads=12 / lookahead_threads=2 / sliced_threads=0 / nr=0 / decimate=1 / interlaced=0 / bluray_compat=0 / constrained_intra=0 / bframes=9 / b_pyramid=2 / b_adapt=2 / b_bias=0 / direct=3 / weightb=1 / open_gop=1 / weightp=2 / keyint=230 / keyint_min=22 / scenecut=40 / intra_refresh=0 / rc=2pass / mbtree=0 / bitrate=2099 / ratetol=1.0 / qcomp=0.60 / qpmin=0 / qpmax=69 / qpstep=4 / cplxblur=20.0 / qblur=0.5 / ip_ratio=1.40 / pb_ratio=1.30 / aq=1:1.00
Default : Да
Forced : Нет

Аудио #1
Идентификатор : 2
Формат : AC-3
Формат/Информация : Audio Coding 3
Расширение режима : CM (complete main)
Параметр Endianness формата : Big
Идентификатор кодека : A_AC3
Продолжительность : 1 ч. 58 м.
Вид битрейта : Постоянный
Битрейт : 448 Кбит/сек
Каналы : 6 каналов
Расположение каналов : Front: L C R, Side: L R, LFE
Частота : 48,0 КГц
Битовая глубина : 16 бит
Метод сжатия : С потерями
Размер потока : 379 Мбайт (15%)
Заголовок : Дублирвоанный (BD CEE)
Язык : Russian
Default : Да
Forced : Нет

Аудио #2
Идентификатор : 3
Формат : AC-3
Формат/Информация : Audio Coding 3
Расширение режима : CM (complete main)
Параметр Endianness формата : Big
Идентификатор кодека : A_AC3
Продолжительность : 1 ч. 58 м.
Вид битрейта : Постоянный
Битрейт : 448 Кбит/сек
Каналы : 6 каналов
Расположение каналов : Front: L C R, Side: L R, LFE
Частота : 48,0 КГц
Битовая глубина : 16 бит
Метод сжатия : С потерями
Размер потока : 379 Мбайт (15%)
Заголовок : Оригинал
Язык : English
Default : Нет
Forced : Нет

Текст #1
Идентификатор : 4
Формат : UTF-8
Идентификатор кодека : S_TEXT/UTF8
Идентификатор кодека/Информация : UTF-8 Plain Text
Язык : Russian
Default : Нет
Forced : Нет

Текст #2
Идентификатор : 5
Формат : UTF-8
Идентификатор кодека : S_TEXT/UTF8
Идентификатор кодека/Информация : UTF-8 Plain Text
Язык : English
Default : Нет
Forced : Нет

Текст #3
Идентификатор : 6
Формат : UTF-8
Идентификатор кодека : S_TEXT/UTF8
Идентификатор кодека/Информация : UTF-8 Plain Text
Заголовок : SDH
Язык : English
Default : Нет
Forced : Нет

Текст #4
Идентификатор : 7
Формат : UTF-8
Идентификатор кодека : S_TEXT/UTF8
Идентификатор кодека/Информация : UTF-8 Plain Text
Заголовок : Forced
Язык : English
Default : Нет
Forced : Нет

Меню
00:00:00.000 : en:00:00:00.000
00:04:41.573 : en:00:04:41.573
00:16:01.961 : en:00:16:01.961
00:20:13.963 : en:00:20:13.963
00:23:37.458 : en:00:23:37.458
00:27:12.840 : en:00:27:12.840
00:31:36.812 : en:00:31:36.812
00:40:37.977 : en:00:40:37.977
00:50:40.579 : en:00:50:40.579
00:53:31.375 : en:00:53:31.375
00:59:36.448 : en:00:59:36.448
01:00:52.816 : en:01:00:52.816
01:17:06.914 : en:01:17:06.914
01:21:50.531 : en:01:21:50.531
01:33:08.333 : en:01:33:08.333
01:46:26.672 : en:01:46:26.672
[/url]


_________________
Проголосуй за трекер Открытый торрент трекер - RUS-MEDIA.ORG

Проголосуй Открытый торрент трекер - RUS-MEDIA.ORG



реклама партнёра


Вернуться к началу
 Профиль Отправить личное сообщение  
 
   Похожие торренты   Автор   Торрент   Размер 
В этой теме нет новых непрочитанных сообщений. Несломленный / Unbroken (Анджелина Джоли) [драма, военный, биография, спорт, 2014] BDRip, Dub [лицензия]

Dracon

9 | 4

2.19 ГБ

В этой теме нет новых непрочитанных сообщений. Снайпер / American Sniper (Клинт Иствуд) [боевик, драма, военный, биография, 2014] DVD5, Dub+Sub [лицензия]

Dracon

44 | 3

4.36 ГБ

В этой теме нет новых непрочитанных сообщений. Игра в имитацию / The Imitation Game (Мортен Тильдум) [триллер, драма, военный, биография, 2014] BDRip 720p, Dub+Sub [Лицензия]

Dracon

122 | 6

3.01 ГБ

В этой теме нет новых непрочитанных сообщений. Снайпер / American Sniper [боевик, драма, военный, биография, 2014] BDRip-AVC, Dub

salma3

81 | 44

2.91 ГБ

В этой теме нет новых непрочитанных сообщений. Снайпер / American Sniper (Клинт Иствуд) [боевик, драма, военный, биография, 2014] BDRip 720p, Dub [iTunes]

Dracon

7 | 3

5.78 ГБ

В этой теме нет новых непрочитанных сообщений. Снайпер / American Sniper [Боевик, триллер, военный, биография,2014] Blu-ray, Dub+Sub [Лицензия]

salma3

76 | 28

38.53 ГБ

В этой теме нет новых непрочитанных сообщений. Ярость / Fury [боевик, драма, военный, 2014] BDRip 1080p, Dub+Sub [Лицензия]

Dracon

341 | 21

15.85 ГБ


Начать новую тему Ответить на тему  [ 1 сообщение ] 




Для Мосгорсуда, Роскомнадзора и рекламодателей:: mosgorsud-torrent[собачка]yandex.ru