Торрент файл
скачать торрент магнет ссылка Добавлен: 29 май 2014, 01:45
Размер: 1.46 ГБ
Сидеров: 70
Личеров: 4
Статус: (salma3)
Автор

СообщениеДобавлено: 29 май 2014, 01:45 

Не в сети
Супермодератор
Аватара пользователя
Дата регистрации:
15 фев 2012, 16:44
Возраст: 27
Спасибо: 5143 / 2090
Сообщения: 17495
Стигматы / Stigmata

Год выхода: 1999
Жанр: ужасы, триллер, детектив
Режиссер: Руперт Вейнрайт

В ролях: Патриция Аркетт, Гэбриел Бирн, Джонатан Прайс, Ниа Лонг, Томас Копаче, Раде Шербеджия, Энрико Колантони, Дик Латесса, Порша де Росси, Патрик Малдун

О фильме:
Фрэнки Пейдж живет спокойно, свободно и беззаботно. И меньше всего ее беспокоят вопросы о Боге. Все это в одночасье меняется, когда ее поражают «стигматы» - кровоточащие раны распятого Христа. Вскоре на нее обращает внимание отец Кернан, уполномоченный следователь из Ватикана.

Одновременно и другой священнослужитель, коррумпированный кардинал Хаусмен, понимает, что Фрэнки избрана для передачи сокрушительного пророчества, которое может навредить официальной церкви. Он убежден, что необходимо любым способом заставить ее замолчать.

Поэтому Кернан, рискуя жизнью, пытается спасти Фрэнки и получить послание, не только разбивающее устои римско-католической церкви, но и навсегда изменяющее судьбу человечества.



Страна: США
Продолжительность: 01:42:12
Перевод: Дубляж, |iTunes Russia|

Файл
Качество: WEB-DLRip
Формат файла: AVI
Видео кодек: XviD
Аудио кодек: AC3
Видео: 704x304, 23,976 fps, 1846 kbps
Звук: AC3, 2 ch, 192 kbps

Общее
Полное имя : Stigmata.1999.WEB-DLRip.avi
Формат : AVI
Формат/Информация : Audio Video Interleave
Размер файла : 1,46 Гбайт
Продолжительность : 1 ч. 42 м.
Общий поток : 2047 Кбит/сек
Программа кодирования : VirtualDubMod 1.5.10.2 (build 2542/release)
Библиотека кодирования : VirtualDubMod build 2542/release

Видео
Идентификатор : 0
Формат : MPEG-4 Visual
Профиль формата : Advanced Simple@L5
Параметр BVOP формата : 1
Параметр QPel формата : Нет
Параметр GMC формата : Без точки перехода
Параметр матрицы формата : Выборочная
Идентификатор кодека : XVID
Идентификатор кодека/Подсказка : XviD
Продолжительность : 1 ч. 42 м.
Битрейт : 1846 Кбит/сек
Ширина : 704 пикс.
Высота : 304 пикс.
Соотношение сторон : 2,35:1
Частота кадров : 23,976 кадр/сек
Цветовое пространство : YUV
Подвыборка цветности : 4:2:0
Битовая глубина : 8 бит
Тип развёртки : Прогрессивная
Метод сжатия : С потерями
Бит/(Пиксели*Кадры) : 0.360
Размер потока : 1,32 Гбайт (90%)
Библиотека кодирования : XviD 65

Аудио
Идентификатор : 1
Формат : AC-3
Формат/Информация : Audio Coding 3
Расширение режима : CM (complete main)
Идентификатор кодека : 2000
Продолжительность : 1 ч. 42 м.
Вид битрейта : Постоянный
Битрейт : 192 Кбит/сек
Канал(ы) : 2 канала(ов)
Расположение каналов : Front: L R
Частота : 48,0 КГц
Битовая глубина : 16 бит
Метод сжатия : С потерями
Размер потока : 140 Мбайт (9%)
Выравнивание : Разделение по промежуткам
Продолжительность промежутка : 42 мс. (1,00 видеокадр)
Время предзагрузки промежутка : 500 ms


Релиз от: Leon-masl


_________________



реклама партнёра


Вернуться к началу
 Профиль Отправить личное сообщение  
 
   Похожие торренты   Автор   Торрент   Размер 
В этой теме нет новых непрочитанных сообщений. Стигматы / Stigmata [Ужасы, триллер, детектив, 1999] BDRip-AVC, Dub+Mvo+Avo+Sub

salma3

123 | 8

3.45 ГБ

В этой теме нет новых непрочитанных сообщений. Стигматы / Stigmata [Ужасы, триллер, детектив, 1999] BDRip 1080p, Dub+Mvo+Avo+Sub

salma3

49 | 3

7.94 ГБ

В этой теме нет новых непрочитанных сообщений. Грэйс / Grace [ужасы, триллер, 2014] WEB-DLRip 720p, Mvo [iTunes Russia]

Dracon

3 | 2

2.84 ГБ

В этой теме нет новых непрочитанных сообщений. Логово зверя / Прибежище / Haunt (Мак Картер) [ужасы,Триллер, детектив, 2013] HDRip, Dub [iTunes Russia]

Dracon

11 | 2

1.37 ГБ

В этой теме нет новых непрочитанных сообщений. Логово зверя / Haunt [ужасы, детектив, 2013] BDRip 1080p, Dub [iTunes Russia]

salma3

5 | 4

7.65 ГБ

В этой теме нет новых непрочитанных сообщений. Логово зверя / Haunt [ужасы, детектив, 2013] BDRip 720p, Dub [iTunes Russia]

salma3

11 | 4

4.6 ГБ

В этой теме нет новых непрочитанных сообщений. Человек ноября / The November Man [боевик, триллер, криминал, 2014] WEB-DLRip, Dub [iTunes Russia]

Dracon

143 | 4

1.46 ГБ


Начать новую тему Ответить на тему  [ 1 сообщение ] 




Для Мосгорсуда, Роскомнадзора и рекламодателей:: mosgorsud-torrent[собачка]yandex.ru