Торрент файл
скачать торрент магнет ссылка Добавлен: 28 май 2014, 17:24
Размер: 1.65 ГБ
Сидеров: 79
Личеров: 5
Статус: (salma3)
Автор

СообщениеДобавлено: 28 май 2014, 17:24 

Не в сети
Супермодератор
Аватара пользователя
Дата регистрации:
15 фев 2012, 16:44
Возраст: 27
Спасибо: 5132 / 2089
Сообщения: 17377
Перед рассветом / Before Dawn

Год выхода: 2012
Жанр: ужасы
Режиссер: Доминик Брант

В ролях: Доминик Брант, Джоэнн Митчелл, Эйлин О’Брайэн, Никки Эванс, Алекс Бальдаччи, Алан Френч, Холли Айллис, Дэвид Нолан, Нил Майерс, Брин Хэммонд

О фильме:
Семейная пара, брак которой трещит по швам, отправляется в загородный дом, чтобы провести выходные вместе и попытаться наладить отношения, но их мечтам не суждено было сбыться.. ведь, как оказалось, разваливается не только их семья, но и весь мир. И в этом новом мире, наполненном кровожадными тварями, семье придется приложить максимум усилий чтобы остаться в живых..



Выпущено: Великобритания
Продолжительность: 01:22:08
Озвучивание: Любительское (двухголосое) [den904 & DeadSno]

Файл
Качество: DVDRip-AVC
Формат файла: MKV
Видео кодек: x264
Аудио кодек: AC3
Видео: 1971 kb/s, 720x304
Звук: Russian: / English: AC3, 448 kb/s (6 ch)

Сэмпл

Релиз группы:

Общее
Before.Dawn.2012.DVDRip.CINEMANIA.mkv
Формат : Matroska
Версия формата : Version 4 / Version 2
Размер файла : 1,65 Гбайт
Продолжительность : 1 ч. 22 м.
Общий поток : 2863 Кбит/сек
Название фильма : Release Group CINEMANIA
Дата кодирования : UTC 2014-05-28 12:35:32
Программа кодирования : mkvmerge v6.9.1 ('Blue Panther') 64bit built on Apr 18 2014 18:23:38
Библиотека кодирования : libebml v1.3.0 + libmatroska v1.4.1

Видео
Идентификатор : 1
Формат : AVC
Формат/Информация : Advanced Video Codec
Профиль формата : High@L4.1
Параметр CABAC формата : Да
Параметр ReFrames формата : 7 кадров
Идентификатор кодека : V_MPEG4/ISO/AVC
Продолжительность : 1 ч. 22 м.
Битрейт : 1971 Кбит/сек
Ширина : 720 пикселей
Высота : 304 пикселя
Соотношение сторон : 2,35:1
Режим частоты кадров : Постоянный
Частота кадров : 25,000 кадров/сек
Цветовое пространство : YUV
Субдискретизация насыщенности : 4:2:0
Битовая глубина : 8 бит
Тип развёртки : Прогрессивная
Бит/(Пиксели*Кадры) : 0.360
Размер потока : 1,10 Гбайт (67%)
Заголовок : Release Group CINEMANIA
Библиотека кодирования : x264 core 129 r2245 bc13772
Настройки программы : cabac=1 / ref=8 / deblock=1:-1:-1 / analyse=0x3:0x133 / me=umh / subme=7 / psy=1 / psy_rd=1.00:0.15 / mixed_ref=1 / me_range=32 / chroma_me=1 / trellis=1 / 8x8dct=1 / cqm=0 / deadzone=21,11 / fast_pskip=0 / chroma_qp_offset=-5 / threads=6 / lookahead_threads=1 / sliced_threads=0 / nr=1 / decimate=1 / interlaced=0 / bluray_compat=0 / constrained_intra=0 / bframes=3 / b_pyramid=1 / b_adapt=1 / b_bias=0 / direct=1 / weightb=1 / open_gop=0 / weightp=1 / keyint=250 / keyint_min=25 / scenecut=40 / intra_refresh=0 / rc_lookahead=30 / rc=2pass / mbtree=1 / bitrate=1971 / ratetol=1.0 / qcomp=0.60 / qpmin=0 / qpmax=69 / qpstep=4 / cplxblur=20.0 / qblur=0.5 / vbv_maxrate=30000 / vbv_bufsize=30000 / nal_hrd=none / ip_ratio=1.40 / aq=1:1.00
Язык : English
Default : Да
Forced : Нет
Основные цвета : Generic film

Аудио #1
Идентификатор : 2
Формат : AC-3
Формат/Информация : Audio Coding 3
Расширение режима : CM (complete main)
Параметр Endianness формата : Big
Идентификатор кодека : A_AC3
Продолжительность : 1 ч. 22 м.
Вид битрейта : Постоянный
Битрейт : 448 Кбит/сек
Каналы : 6 каналов
Расположение каналов : Front: L C R, Side: L R, LFE
Частота : 48,0 КГц
Битовая глубина : 16 бит
Метод сжатия : С потерями
Размер потока : 264 Мбайт (16%)
Заголовок : Влад и Снежинка
Язык : Russian
Default : Да
Forced : Да

Аудио #2
Идентификатор : 3
Формат : AC-3
Формат/Информация : Audio Coding 3
Расширение режима : CM (complete main)
Параметр Endianness формата : Big
Идентификатор кодека : A_AC3
Продолжительность : 1 ч. 22 м.
Вид битрейта : Постоянный
Битрейт : 448 Кбит/сек
Каналы : 6 каналов
Расположение каналов : Front: L C R, Side: L R, LFE
Частота : 48,0 КГц
Битовая глубина : 16 бит
Метод сжатия : С потерями
Задержка видео : 15 мс.
Размер потока : 264 Мбайт (16%)
Язык : English
Default : Нет
Forced : Нет


_________________



реклама партнёра


Вернуться к началу
 Профиль Отправить личное сообщение  
 
   Похожие торренты   Автор   Торрент   Размер 
В этой теме нет новых непрочитанных сообщений. Перед рассветом / Before Dawn [ужасы, 2012] DVDRip, Dvo

salma3

175 | 22

1.45 ГБ

В этой теме нет новых непрочитанных сообщений. Перед самым рассветом / Just Before Dawn [ужасы, триллер, 1981] HDRip, Avo

salma3

17 | 2

1.45 ГБ

В этой теме нет новых непрочитанных сообщений. Bloodshot Dawn - Bloodshot Dawn [2012, Melodic Death Metal, Thrash Metal, MP3]

PriZraK

0 | 1

118 МБ

В этой теме нет новых непрочитанных сообщений. Перед рассветом / Before Sunrise [драма, мелодрама, 1995] WEB-DL 720p, Mvo+Dvo+Avo+Sub

salma3

29 | 4

3.49 ГБ

В этой теме нет новых непрочитанных сообщений. Dawn Landes - Dawn's Music [2008, Rock, MP3]

PriZraK

0 | 1

65.26 МБ

В этой теме нет новых непрочитанных сообщений. At The Dawn - From Dawn to Dusk [2013, Power Metal, MP3]

PriZraK

0 | 1

99.52 МБ

В этой теме нет новых непрочитанных сообщений. After All - Dawn Of The Enforcer [2012, Thrash Metal, MP3]

PriZraK

0 | 1

128.01 МБ


Начать новую тему Ответить на тему  [ 1 сообщение ] 




Для Мосгорсуда, Роскомнадзора и рекламодателей:: mosgorsud-torrent[собачка]yandex.ru