Торрент файл
скачать торрент магнет ссылка Добавлен: 24 май 2014, 11:03
Размер: 2.14 ГБ
Сидеров: 61
Личеров: 5
Статус: (salma3)
Автор

СообщениеДобавлено: 24 май 2014, 11:03 

Не в сети
Зам. Админа
Аватара пользователя
Дата регистрации:
02 дек 2010, 12:39
Спасибо: 12461 / 214
Сообщения: 27968
Год выпуска: 2014
Жанр: фантастика, драма
Режиссер: Брайан Хориути
В ролях: Розарио Доусон, Джош Хартнетт, Тереза Палмер, Алексис Бледел, Пенн Бэджли, Джина Роулендс, Фрэнк Ланджелла, Конор Лесли, Хилл Харпер, Нед Вон
О фильме:
Истории трёх влюбленных пар оказываются тесно переплетены из-за ужасной техногенной катастрофы, которая разлучила их. Теперь поступками Лена, Мии, Энди, Эстер, Анны и Эрика руководит любовь, но и она же делает их слепыми. Эти персонажи вовсе не идеальны, и у каждого из них есть недостатки, как, впрочем, и у любого из остальных шести миллиардов человек, каждый из которых теперь столкнулся с последствиями кошмарного биологического катаклизма.

Выпущено: США
Продолжительность: 01:38:36
Озвучивание: Любительское (одноголосое) [datynet
Формат: MKV
Качество: WEB-DL 720p [HD4FUN]
Видео: 3320 kb/s, 1280x688
Аудио: Russian: AC3, 192 kb/s (2 ch) / English: AC3, 384 kb/s (2 ch)
Субтитры: English
Дополнительно: Сохранены оригинальные чаптеры как на Blu-Ray
Размер: 2.14 GB
Скачать: Сэмпл

Общее
Parts.Per.Billion.2014.WEB-DL.720p.CINEMANIA.mkv
Формат : Matroska
Версия формата : Version 4 / Version 2
Размер файла : 2,14 Гбайт
Продолжительность : 1 ч. 38 м.
Общий поток : 3114 Кбит/сек
Название фильма : Release Group CINEMANIA
Дата кодирования : UTC 2014-05-24 06:29:40
Программа кодирования : mkvmerge v6.9.1 ('Blue Panther') 64bit built on Apr 18 2014 18:23:38
Библиотека кодирования : libebml v1.3.0 + libmatroska v1.4.1
Видео
Идентификатор : 1
Формат : AVC
Формат/Информация : Advanced Video Codec
Профиль формата : High@L4.1
Параметр CABAC формата : Да
Параметр ReFrames формата : 3 кадра
Идентификатор кодека : V_MPEG4/ISO/AVC
Продолжительность : 1 ч. 38 м.
Битрейт : 3320 Кбит/сек
Ширина : 1280 пикселей
Высота : 688 пикселей
Соотношение сторон : 1,85:1
Режим частоты кадров : Постоянный
Частота кадров : 23,976 кадра/сек
Цветовое пространство : YUV
Субдискретизация насыщенности : 4:2:0
Битовая глубина : 8 бит
Тип развёртки : Прогрессивная
Бит/(Пиксели*Кадры) : 0.117
Размер потока : 1,71 Гбайт (80%)
Заголовок : Release Group CINEMANIA
Библиотека кодирования : x264 core 138 r2358 9e941d1
Настройки программы : cabac=1 / ref=3 / deblock=1:-1:-1 / analyse=0x3:0x113 / me=hex / subme=7 / psy=1 / psy_rd=1.00:0.15 / mixed_ref=1 / me_range=16 / chroma_me=1 / trellis=0 / 8x8dct=1 / cqm=0 / deadzone=21,11 / fast_pskip=1 / chroma_qp_offset=-2 / threads=18 / lookahead_threads=3 / sliced_threads=0 / nr=0 / decimate=1 / interlaced=0 / bluray_compat=0 / constrained_intra=0 / bframes=3 / b_pyramid=0 / b_adapt=1 / b_bias=0 / direct=1 / weightb=1 / open_gop=0 / weightp=2 / keyint=240 / keyint_min=23 / scenecut=40 / intra_refresh=0 / rc_lookahead=40 / rc=crf / mbtree=1 / crf=16.5 / qcomp=0.60 / qpmin=10 / qpmax=51 / qpstep=4 / vbv_maxrate=62500 / vbv_bufsize=78125 / crf_max=0.0 / nal_hrd=none / ip_ratio=1.40 / aq=1:1.00
Язык : English
Default : Да
Forced : Нет
Основные цвета : BT.709
Характеристики трансфера : BT.709
Коэффициенты матрицы : BT.709
Аудио #1
Идентификатор : 2
Формат : AC-3
Формат/Информация : Audio Coding 3
Расширение режима : CM (complete main)
Параметр Endianness формата : Big
Идентификатор кодека : A_AC3
Продолжительность : 1 ч. 38 м.
Вид битрейта : Постоянный
Битрейт : 192 Кбит/сек
Каналы : 2 канала
Расположение каналов : Front: L R
Частота : 44,1 КГц
Битовая глубина : 16 бит
Метод сжатия : С потерями
Размер потока : 135 Мбайт (6%)
Заголовок : datynet
Язык : Russian
Default : Да
Forced : Да
Аудио #2
Идентификатор : 3
Формат : AC-3
Формат/Информация : Audio Coding 3
Расширение режима : CM (complete main)
Параметр Endianness формата : Big
Идентификатор кодека : A_AC3
Продолжительность : 1 ч. 38 м.
Вид битрейта : Постоянный
Битрейт : 384 Кбит/сек
Каналы : 6 каналов
Расположение каналов : Front: L C R, Side: L R, LFE
Частота : 48,0 КГц
Битовая глубина : 16 бит
Метод сжатия : С потерями
Размер потока : 271 Мбайт (12%)
Язык : English
Default : Нет
Forced : Нет
Текст
Идентификатор : 4
Формат : UTF-8
Идентификатор кодека : S_TEXT/UTF8
Идентификатор кодека/Информация : UTF-8 Plain Text
Язык : English
Default : Нет
Forced : Нет
Меню
00:00:00.000 : en:1
00:04:35.000 : en:2
00:07:24.000 : en:3
00:12:02.000 : en:4
00:16:06.000 : en:5
00:22:48.000 : en:6
00:27:53.000 : en:7
00:36:33.000 : en:8
00:43:23.000 : en:9
00:47:54.000 : en:10
00:56:44.000 : en:11
01:05:47.000 : en:12
01:10:20.000 : en:13
01:14:16.000 : en:14
01:20:28.000 : en:15
01:26:40.000 : en:16




реклама партнёра


Вернуться к началу
 Профиль  
 
   Похожие торренты   Автор   Торрент   Размер 
В этой теме нет новых непрочитанных сообщений. Одна миллиардная доля / Parts Per Billion [фантастика, 2014] BDRip 720p, Mvo

Dracon

56 | 5

5.7 ГБ

В этой теме нет новых непрочитанных сообщений. Одна миллиардная доля / Parts Per Billion [фантастика, 2014] HDRip, Mvo

salma3

372 | 9

1.37 ГБ

В этой теме нет новых непрочитанных сообщений. Одна миллиардная доля / Parts Per Billion [фантастика, 2014] HDRip, Mvo [Лицензия]

Dracon

634 | 15

1.46 ГБ

В этой теме нет новых непрочитанных сообщений. Два дня, одна ночь / Deux jours, une nuit [драма, 2014] BDRip 720p, mvo [Чистый звук]

Dracon

2 | 2

4.5 ГБ

В этой теме нет новых непрочитанных сообщений. Части тела / Private Parts [драма, комедия, биография, 1997] WEB-DL 720p, Dvo+Avo

salma3

177 | 27

4.36 ГБ

В этой теме нет новых непрочитанных сообщений. Одна встреча / Une rencontre [драма, мелодрама, 2014] HDRip, Dub [лицензия]

Dracon

8 | 2

1.35 ГБ

В этой теме нет новых непрочитанных сообщений. Одна встреча / Une rencontre [драма, мелодрама, 2014] DVDRip, Dub [лицензия]

salma3

329 | 6

1.46 ГБ


Начать новую тему Ответить на тему  [ 1 сообщение ] 




Для Мосгорсуда, Роскомнадзора и рекламодателей:: mosgorsud-torrent[собачка]yandex.ru