Торрент файл
скачать торрент магнет ссылка Добавлен: 23 май 2014, 15:09
Размер: 2.6 ГБ
Сидеров: 510
Личеров: 82
Статус: (salma3)
Автор

СообщениеДобавлено: 23 май 2014, 15:09 

Не в сети
Зам. Админа
Аватара пользователя
Дата регистрации:
02 дек 2010, 12:39
Спасибо: 12461 / 214
Сообщения: 27968
Год выпуска: 2013
Страна: США / AI-Film, Follow Through Productions, Laura Ziskin Productions, Lee Daniels Entertainment, Pam Williams Productions, Salamander Pictures, Windy Hill Pictures
Жанр: драма, биография
Продолжительность: 02:12:06
Перевод: Профессиональный (многоголосый закадровый)
Cубтитры: русские, английские
Оригинальная аудиодорожка: английский (отдельным файлом)
Режиссер: Джеймс Грэй / James Gray
В ролях: Форест Уитакер, Опра Уинфри, Кьюба Гудинг мл., Дэвид Ойелоуо, Терренс Ховард, Робин Уильямс, Лив Шрайбер, Алан Рикман, Джон Кьюсак, Дэвид Баннер...
Описание: В фильме, основанном на статье из Washington Post, рассказывается о дворецком Юджине Аллене, служившем в Белом Доме под началом восьми разных президентов.


Качество: BDRip
Формат: AVI
Видео: 720x384 (1.85:1), 23.976 fps, XViD ~ 1913 kbps avg, 0.289 bit/pixel
Аудио 1: 48 kHz, Dolby AC3, 6 ch, 448 kbps, русский
Аудио 2: 48 kHz, Dolby AC3, 6 ch, 448 kbps, английский (отдельным файлом)
Общее
Полное имя : Dvoretskiy.2013.P.DVDRip_[New-Team]_by_avproh.avi
Формат : AVI
Формат/Информация : Audio Video Interleave
Профиль формата : OpenDML
Размер файла : 2,19 Гбайт
Продолжительность : 2 ч. 12 м.
Общий поток : 2373 Кбит/сек
Программа кодирования : VirtualDubModRus 1.5.10.2 (build 2542/release)
Библиотека кодирования : VirtualDubMod build 2542/release
Видео
Идентификатор : 0
Формат : MPEG-4 Visual
Профиль формата : Advanced Simple@L5
Параметр BVOP формата : 1
Параметр QPel формата : Нет
Параметр GMC формата : Без точки перехода
Параметр матрицы формата : Выборочная
Идентификатор кодека : XVID
Идентификатор кодека/Подсказка : XviD
Продолжительность : 2 ч. 12 м.
Битрейт : 1913 Кбит/сек
Ширина : 720 пикселей
Высота : 384 пикселя
Соотношение сторон : 1,85:1
Частота кадров : 23,976 кадра/сек
Цветовое пространство : YUV
Субдискретизация насыщенности : 4:2:0
Битовая глубина : 8 бит
Тип развёртки : Прогрессивная
Метод сжатия : С потерями
Бит/(Пиксели*Кадры) : 0.289
Размер потока : 1,77 Гбайт (81%)
Библиотека кодирования : XviD 73
Аудио
Идентификатор : 1
Формат : AC-3
Формат/Информация : Audio Coding 3
Расширение режима : CM (complete main)
Параметр Endianness формата : Big
Идентификатор кодека : 2000
Продолжительность : 2 ч. 12 м.
Вид битрейта : Постоянный
Битрейт : 448 Кбит/сек
Каналы : 6 каналов
Расположение каналов : Front: L C R, Side: L R, LFE
Частота : 48,0 КГц
Битовая глубина : 16 бит
Метод сжатия : С потерями
Размер потока : 423 Мбайт (19%)
Выравнивание : Разделение по промежуткам
Продолжительность промежутка : 42 мс. (1,00 видеокадр)
Время предзагрузки промежутка : 500 мс.





реклама партнёра


Вернуться к началу
 Профиль  
 
   Похожие торренты   Автор   Торрент   Размер 
В этой теме нет новых непрочитанных сообщений. Дворецкий / The Butler [драма, биография, 2013] BDRip 1080p, Mvo+Sub [лицензия]

Dracon

143 | 18

16.62 ГБ

В этой теме нет новых непрочитанных сообщений. Дворецкий / The Butler [драма, биография, 2013] BDRemux 1080p, Mvo+Sub [лицензия]

Dracon

20 | 10

29.85 ГБ

В этой теме нет новых непрочитанных сообщений. Дворецкий / The Butler [драма, биография, 2013] BDRip 720p, avo

Dracon

815 | 91

4.31 ГБ

В этой теме нет новых непрочитанных сообщений. Дворецкий / The Butler [драма, биография, 2013] BDRip 720p, avo

Dracon

44 | 13

8.97 ГБ

В этой теме нет новых непрочитанных сообщений. Дворецкий / The Butler [драма, биография, 2013] HDRip, avo

Dracon

1891 | 107

1.37 ГБ

В этой теме нет новых непрочитанных сообщений. Темный Дворецкий / Black Butler / Kuroshitsuji [фэнтези, 2014] BDRip 720p, dvo

Dracon

245 | 15

5.28 ГБ

В этой теме нет новых непрочитанных сообщений. Темный Дворецкий / Black Butler / Kuroshitsuji (Кентаро Отани, Кейичи Сато) [2014, фэнтези, HDRip] dvo

Nickolas3435

1028 | 31

1.37 ГБ


Начать новую тему Ответить на тему  [ 1 сообщение ] 




Для Мосгорсуда, Роскомнадзора и рекламодателей:: mosgorsud-torrent[собачка]yandex.ru