Торрент файл
скачать торрент магнет ссылка Добавлен: 22 май 2014, 12:57
Размер: 2.82 ГБ
Сидеров: 83
Личеров: 7
Автор

СообщениеДобавлено: 22 май 2014, 12:57 

Не в сети
Супермодератор
Аватара пользователя
Дата регистрации:
15 фев 2012, 16:44
Возраст: 27
Спасибо: 5143 / 2090
Сообщения: 17495
Год выхода: 2003
Жанр: комедия, приключения, семейный
Режиссер: Джо Данте
В ролях: Брендан Фрейзер, Дженна Элфмэн, Стив Мартин, Тимоти Далтон, Хэзер Локлир, Джоан Кьюсак, Билл Голдберг, Дон Стэнтон, Дэн Стэнтон, Дик Миллер
О фильме: «Самое большое за всё время приключение мультяшек, удивившее всех и всё..»
Анимационные герои: Багс Банни и Даффи Дак - в реальной жизни! Поиски пропавшего человека и огромного мифического алмаза приводят Багса и Даффи сначала в Лас-Вегас, а затем в непроходимые джунгли Африки...



Страна: США, Германия
Студия: Goldmann Pictures, Lonely Film Productions GmbH & Co. KG., Warner Bros. Animation…
Продолжительность: 01:31:38
Перевод: Дубляж Лицензия
Файл
Кодек: h.264 (MKV)
Качество: BDRip 720p
Видео: AVC, 1280 x 540, ~3421 kbps
Звук: Русский, Английский: AC-3, 6 ch, 448 kbps
Субтитры: Русский
Семпл
Общее
Уникальный идентификатор : 168348648403719580577546155723716462494 (0x7EA6C532C2870C1E037BA147C20E879E)
Полное имя : F:Луни Тюнз Снова в деле Looney Tunes Back in Action (2003)Looney.Tunes.Back.in.Action.2003.720p.BDRip.mkv
Формат : Matroska
Версия формата : Version 2
Размер файла : 2,82 Гбайт
Продолжительность : 1 ч. 31 м.
Режим общего битрейта : Переменный
Общий поток : 4404 Кбит/сек
Программа кодирования : Lavf51.12.1
Библиотека кодирования : Lavf51.12.1
Видео
Идентификатор : 1
Формат : AVC
Формат/Информация : Advanced Video Codec
Профиль формата : Baseline@L3.1
Параметр CABAC формата : Нет
Параметр ReFrames формата : 1 кадр
Параметр GOP формата : M=1, N=12
Идентификатор кодека : V_MPEG4/ISO/AVC
Продолжительность : 1 ч. 31 м.
Вид битрейта : Переменный
Битрейт : 3421 Кбит/сек
Максимальный битрейт : 5250 Кбит/сек
Ширина : 1280 пикселей
Высота : 540 пикселей
Соотношение сторон : 2,40:1
Режим частоты кадров : Постоянный
Частота кадров : 23,976 кадра/сек
Частота кадров в оригинале : 24,000 кадра/сек
Цветовое пространство : YUV
Субдискретизация насыщенности : 4:2:0
Битовая глубина : 8 бит
Тип развёртки : Прогрессивная
Бит/(Пиксели*Кадры) : 0.206
Размер потока : 2,19 Гбайт (78%)
Язык : English
Default : Да
Forced : Нет
Аудио #1
Идентификатор : 2
Формат : AC-3
Формат/Информация : Audio Coding 3
Расширение режима : CM (complete main)
Параметр Endianness формата : Big
Идентификатор кодека : A_AC3
Продолжительность : 1 ч. 31 м.
Вид битрейта : Постоянный
Битрейт : 448 Кбит/сек
Каналы : 6 каналов
Расположение каналов : Front: L C R, Side: L R, LFE
Частота : 48,0 КГц
Битовая глубина : 16 бит
Метод сжатия : С потерями
Размер потока : 294 Мбайт (10%)
Язык : Russian
Default : Да
Forced : Нет
Аудио #2
Идентификатор : 4
Формат : AC-3
Формат/Информация : Audio Coding 3
Расширение режима : CM (complete main)
Параметр Endianness формата : Big
Идентификатор кодека : A_AC3
Продолжительность : 1 ч. 31 м.
Вид битрейта : Постоянный
Битрейт : 448 Кбит/сек
Каналы : 6 каналов
Расположение каналов : Front: L C R, Side: L R, LFE
Частота : 48,0 КГц
Битовая глубина : 16 бит
Метод сжатия : С потерями
Размер потока : 294 Мбайт (10%)
Язык : English
Default : Да
Forced : Нет
Текст
Идентификатор : 3
Формат : UTF-8
Идентификатор кодека : S_TEXT/UTF8
Идентификатор кодека/Информация : UTF-8 Plain Text
Язык : Russian
Default : Да
Forced : Нет


_________________



реклама партнёра


Вернуться к началу
 Профиль Отправить личное сообщение  
 
   Похожие торренты   Автор   Торрент   Размер 
В этой теме нет новых непрочитанных сообщений. Луни Тюнз шоу / The Looney Tunes Show [S02] [мультфильм, фантастика, комедия, семейный, 2012-2013] WEB-DL 720p, Dub [Пифагор]

Dracon

35 | 22

17.29 ГБ

В этой теме нет новых непрочитанных сообщений. Шоу Луни Тюнз / The Looney Tunes Show [S01] [мультфильм, короткометражка, комедия, 2011] WEB-DLRip. Dub

salma3

36 | 17

6.84 ГБ

В этой теме нет новых непрочитанных сообщений. Луни Тюнз: кролик в бегах / Looney Tunes: Rabbit Run (Джефф Сьергей) [мультфильм, 2015] WEB-DLRip 720p, Mvo

Dracon

668 | 93

2.42 ГБ

В этой теме нет новых непрочитанных сообщений. Луни Тюнз: кролик в бегах / Looney Tunes: Rabbit Run [мультфильм, 2015] WEB-DLRip, Mvo

salma3

2648 | 86

1.37 ГБ

В этой теме нет новых непрочитанных сообщений. Снова 16 / 16 ans ou presque [Комедия, 2013] BDRip 720p, Dub [Лицензия]

Dracon

122 | 7

4.6 ГБ

В этой теме нет новых непрочитанных сообщений. Я, снова я и мама / Les garcons et Guillaume, a table / Me, Myself and Mum [комедия, 2013] BDRip 720p, Mvo+Sub [Лицензия]

Dracon

21 | 4

4.5 ГБ

В этой теме нет новых непрочитанных сообщений. Снова в бой / Back in Action [Боевик, 1993] DVDRip, Avo

salma3

2 | 3

1.46 ГБ


Начать новую тему Ответить на тему  [ 1 сообщение ] 




Для Мосгорсуда, Роскомнадзора и рекламодателей:: mosgorsud-torrent[собачка]yandex.ru