Торрент файл
скачать торрент магнет ссылка Добавлен: 21 май 2014, 01:57
Размер: 1.46 ГБ
Сидеров: 21
Личеров: 6
Статус: (salma3)
Автор

СообщениеДобавлено: 21 май 2014, 01:57 

Не в сети
Супермодератор
Аватара пользователя
Дата регистрации:
15 фев 2012, 16:44
Возраст: 27
Спасибо: 5135 / 2089
Сообщения: 17405
Под прицелом / Liberty Stands Still

Год выхода: 2002
Жанр: триллер, драма
Режиссер: Кари Скогланд / Kari Skogland

В ролях: Уэсли Снайпс, Линда Фиорентино, Таня Аллен, Харт Бокнер, Фульвио Чечере, Грегори Калпакис, Терри Чен, Гарвин Кросс, Роджер Р. Кросс, Мартин Камминс

О фильме:
Либерти Уоллас, жена международного дилера по торговле оружием, взята в заложницы обезумевшим отцом девочки, убитой из пистолета, проданного фирмой ее мужа.
Если Либерти не выполнит все требования террориста, он взорвет бомбу в театре, где, помимо других людей, находится и ее муж. Героине приходится вступить в долгую и опасную игру с человеком, готовым на все.



Страна: Германия, Канада
Продолжительность: 01:36:27
Перевод: Профессиональный (двухголосый закадровый) [DVD R5]

Файл
Качество: WEB-DLRip
Формат файла: AVI
Видео кодек: XviD
Аудио кодек: AC3
Видео: 720x400, 23,976 fps, 1713 Kbps
Звук: AC3, 6 ch, 448 kbps, 48 kHz

Общее
Полное имя : Pod.Pricelom.WEB-DLRip.avi
Формат : AVI
Формат/Информация : Audio Video Interleave
Размер файла : 1,46 Гбайт
Продолжительность : 1 ч. 36 м.
Общий поток : 2170 Кбит/сек
Программа кодирования : VirtualDubMod 1.5.10.3 | http://www.virtualdub-fr.org || (build 2550/release)
Библиотека кодирования : VirtualDubMod build 2550/release
Видео
Идентификатор : 0
Формат : MPEG-4 Visual
Профиль формата : Advanced Simple@L5
Параметр BVOP формата : 1
Параметр QPel формата : Нет
Параметр GMC формата : Без точки перехода
Параметр матрицы формата : Выборочная
Идентификатор кодека : XVID
Идентификатор кодека/Подсказка : XviD
Продолжительность : 1 ч. 36 м.
Битрейт : 1713 Кбит/сек
Ширина : 720 пикс.
Высота : 400 пикс.
Соотношение сторон : 16:9
Частота кадров : 23,976 кадр/сек
Цветовое пространство : YUV
Подвыборка цветности : 4:2:0
Битовая глубина : 8 бит
Тип развёртки : Прогрессивная
Метод сжатия : С потерями
Бит/(Пиксели*Кадры) : 0.248
Размер потока : 1,15 Гбайт (79%)
Библиотека кодирования : XviD 73
Аудио
Идентификатор : 1
Формат : AC-3
Формат/Информация : Audio Coding 3
Расширение режима : CM (complete main)
Идентификатор кодека : 2000
Продолжительность : 1 ч. 36 м.
Вид битрейта : Постоянный
Битрейт : 448 Кбит/сек
Канал(ы) : 6 канала(ов)
Расположение каналов : Front: L C R, Side: L R, LFE
Частота : 48,0 КГц
Битовая глубина : 16 бит
Метод сжатия : С потерями
Размер потока : 309 Мбайт (21%)
Выравнивание : Разделение по промежуткам
Продолжительность промежутка : 42 мс. (1,00 видеокадр)
Время предзагрузки промежутка : 500 ms

Релиз от: Leon-masl


_________________



реклама партнёра


Вернуться к началу
 Профиль Отправить личное сообщение  
 
   Похожие торренты   Автор   Торрент   Размер 
В этой теме нет новых непрочитанных сообщений. Под прицелом / Liberty Stands Still [Триллер, драма, 2002] WEB-DL 720р, Mvo+Sub

salma3

64 | 14

3.42 ГБ

В этой теме нет новых непрочитанных сообщений. Под прицелом / Hunted [s01] [триллер, боевик, драма, 2012] WEB-DLRip, Mvo [NewStudio]

salma3

13 | 3

5.47 ГБ

В этой теме нет новых непрочитанных сообщений. Игра на высоте / When the Game Stands Tall [драма, спорт, 2014] WEB-DLRip, Mvo [iTunes]

Dracon

313 | 11

2.05 ГБ

В этой теме нет новых непрочитанных сообщений. Под прицелом / Athadu [Боевик, триллер, мелодрама, 2005] WEB-DLRip 720p, Dvo [Red Media]

salma3

20 | 7

3.48 ГБ

В этой теме нет новых непрочитанных сообщений. Высоты свободы / Liberty Heights [Драма, комедия, 1999] WEB-DLRip, Mvo

salma3

23 | 2

1.46 ГБ

В этой теме нет новых непрочитанных сообщений. Сыновья Свободы / Sons of Liberty [1-3 серии из 3] (Кари Скогланд) [короткометражка, драма, биография, история, 2015] WEB-DLRip [AlexFilm]

Dracon

81 | 22

2.98 ГБ

В этой теме нет новых непрочитанных сообщений. Под прицелом / Silent Trigger [Боевик, триллер, драма, 1996] HDRip-AVC, Dvo+Avo+Sub

salma3

75 | 8

2.18 ГБ


Начать новую тему Ответить на тему  [ 1 сообщение ] 




Для Мосгорсуда, Роскомнадзора и рекламодателей:: mosgorsud-torrent[собачка]yandex.ru