Торрент файл
скачать торрент магнет ссылка Добавлен: 21 май 2014, 00:27
Размер: 1.46 ГБ
Сидеров: 53
Личеров: 5
Статус: (salma3)
Автор

СообщениеДобавлено: 21 май 2014, 00:27 

В сети
Супермодератор
Аватара пользователя
Дата регистрации:
15 фев 2012, 16:44
Возраст: 27
Спасибо: 5140 / 2090
Сообщения: 17467
Настоящая Маккой / The Real McCoy

Год выпуска: 1993
Жанр: боевик, триллер
Режиссер: Russell Mulcahy / Рассел Малкэхи

В ролях: Ким Бейсингер, Вэл Килмер, Теренс Стэмп, Гейлард Сартейн, Зэк Инглиш, Рейнор Шайни, Дебора Хобарт, Памела Стаббарт, Энди Стал, Дин Рэдер-Дювалл...

Описание:
Молодая очаровательная женщина Кэрин МакКой была схвачена, когда грабила банк. Не впервые она совершала подобное преступление… Отсидев положенный срок, Кэрин вышла на свободу с желанием начать новую жизнь вместе со своим маленьким сыном. Однако кое-кому не давали покоя ее уникальные способности удачно проворачивать криминальные операции по взлому неприступных финансовых крепостей. И нашлись мастера шантажа, похитившие сына Кэрин, чтобы заставить ее пойти на новое дело, на очередное ограбление очередного банка…



Страна: США
Продолжительность: 01:45:10
Перевод: Профессиональный (многоголосый закадровый)
Оригинальная аудиодорожка: английский
Cубтитры: русский

Файл
Качество: DVDRip-AVC
Формат файла: MKV
Видео кодек: H264
Аудио кодек: AC3
Видео: 712x338@712x378 (1,884:1), 23,976 fps, H264 ~ 1084 kbps avg, 0.188 bit/pixel
Аудио: 48 kHz, Dolby Digital AC3 5.1, 448 kbps MVO
Аудио: 48 kHz, Dolby Digital AC3 5.1, 448 kbps Английский
Субтитры: SoftSub (srt)

Общее
Полное имя : Nastoyashhaya.Makkoy.1993.DVDRip-AVC_[New-team]_by_AVP_Studio (1).mkv
Формат : Matroska
Версия формата : Version 4 / Version 2
Размер файла : 1,46 Гбайт
Продолжительность : 1 ч. 45 м.
Общий поток : 1982 Кбит/сек
Название фильма : Nastoyashhaya.Makkoy.1993.DVDRip-AVC_[New-team]_by_AVP_Studio
Дата кодирования : UTC 2014-05-20 13:27:41
Программа кодирования : mkvmerge v6.9.1 ('Blue Panther') 64bit built on Apr 18 2014 18:23:38
Библиотека кодирования : libebml v1.3.0 + libmatroska v1.4.1
Видео
Идентификатор : 1
Формат : AVC
Формат/Информация : Advanced Video Codec
Профиль формата : High@L4.1
Параметр CABAC формата : Да
Параметр ReFrames формата : 8 кадров
Идентификатор кодека : V_MPEG4/ISO/AVC
Продолжительность : 1 ч. 45 м.
Битрейт : 1084 Кбит/сек
Ширина : 712 пикселей
Высота : 338 пикселей
Соотношение сторон : 1,884
Соотношение сторон в оригинале : 1,883
Режим частоты кадров : Постоянный
Частота кадров : 23,976 кадра/сек
Цветовое пространство : YUV
Субдискретизация насыщенности : 4:2:0
Битовая глубина : 8 бит
Тип развёртки : Прогрессивная
Бит/(Пиксели*Кадры) : 0.188
Размер потока : 787 Мбайт (53%)
Заголовок : Источник DVD9
Библиотека кодирования : x264 core 138 r2356 a1d3d17
Настройки программы : cabac=1 / ref=8 / deblock=1:-2:-1 / analyse=0x3:0x113 / me=umh / subme=10 / psy=1 / psy_rd=1.00:0.05 / mixed_ref=1 / me_range=32 / chroma_me=1 / trellis=2 / 8x8dct=1 / cqm=0 / deadzone=21,11 / fast_pskip=0 / chroma_qp_offset=-3 / threads=3 / lookahead_threads=1 / sliced_threads=0 / nr=0 / decimate=0 / interlaced=0 / bluray_compat=0 / constrained_intra=0 / bframes=8 / b_pyramid=2 / b_adapt=2 / b_bias=0 / direct=3 / weightb=1 / open_gop=0 / weightp=2 / keyint=240 / keyint_min=24 / scenecut=40 / intra_refresh=0 / rc_lookahead=40 / rc=2pass / mbtree=1 / bitrate=1084 / ratetol=1.0 / qcomp=0.60 / qpmin=0 / qpmax=69 / qpstep=4 / cplxblur=20.0 / qblur=0.5 / ip_ratio=1.40 / aq=1:1.00
Язык : English
Default : Да
Forced : Нет
Аудио #1
Идентификатор : 2
Формат : AC-3
Формат/Информация : Audio Coding 3
Расширение режима : CM (complete main)
Параметр Endianness формата : Big
Идентификатор кодека : A_AC3
Продолжительность : 1 ч. 45 м.
Вид битрейта : Постоянный
Битрейт : 448 Кбит/сек
Каналы : 6 каналов
Расположение каналов : Front: L C R, Side: L R, LFE
Частота : 48,0 КГц
Битовая глубина : 16 бит
Метод сжатия : С потерями
Размер потока : 337 Мбайт (23%)
Заголовок : Источник DVD Dolby Digital 5,1 448kb MVO
Язык : Russian
Default : Да
Forced : Нет
Аудио #2
Идентификатор : 3
Формат : AC-3
Формат/Информация : Audio Coding 3
Расширение режима : CM (complete main)
Параметр Endianness формата : Big
Идентификатор кодека : A_AC3
Продолжительность : 1 ч. 45 м.
Вид битрейта : Постоянный
Битрейт : 448 Кбит/сек
Каналы : 6 каналов
Расположение каналов : Front: L C R, Side: L R, LFE
Частота : 48,0 КГц
Битовая глубина : 16 бит
Метод сжатия : С потерями
Размер потока : 337 Мбайт (23%)
Заголовок : Источник DVD Dolby Digital 5,1 448kb MVO
Язык : Russian
Default : Нет
Forced : Нет
Текст
Идентификатор : 4
Формат : UTF-8
Идентификатор кодека : S_TEXT/UTF8
Идентификатор кодека/Информация : UTF-8 Plain Text
Заголовок : Источник DVD SoftSub (srt)
Язык : Russian
Default : Нет
Forced : Нет
Меню
00:00:00.000 : ru:00:00:00.000000000
00:05:00.000 : :00:05:00.000000000
00:10:00.000 : :00:10:00.000000000
00:15:00.000 : :00:15:00.000000000
00:20:00.000 : :00:20:00.000000000
00:25:00.000 : :00:25:00.000000000
00:30:00.000 : :00:30:00.000000000
00:35:00.000 : :00:35:00.000000000
00:40:00.000 : :00:40:00.000000000
00:45:00.000 : :00:45:00.000000000
00:50:00.000 : :00:50:00.000000000
00:55:00.000 : :00:55:00.000000000
01:00:00.000 : :01:00:00.000000000
01:05:00.000 : :01:05:00.000000000
01:10:00.000 : :01:10:00.000000000
01:15:00.000 : :01:15:00.000000000
01:20:00.000 : :01:20:00.000000000
01:25:00.000 : :01:25:00.000000000
01:30:00.000 : :01:30:00.000000000
01:35:00.000 : :01:35:00.000000000
01:40:00.000 : :01:40:00.000000000


Раздача от:


_________________



реклама партнёра


Вернуться к началу
 Профиль Отправить личное сообщение  
 
   Похожие торренты   Автор   Торрент   Размер 
В этой теме нет новых непрочитанных сообщений. Настоящая Маккой / The Real McCoy [Боевик, триллер, 1993] DVDRip, Mvo+Avo

salma3

64 | 3

1.46 ГБ

В этой теме нет новых непрочитанных сообщений. Настоящая МакКой / The Real McCoy [Боевик, триллер, драма, криминал, 1993] DVDRip, Avo

salma3

28 | 2

1.46 ГБ

В этой теме нет новых непрочитанных сообщений. Настоящая любовь / True Romance [триллер, драма, криминал, 1993] BDRemux 1080p, Mvo+Dvo+Avo

salma3

9 | 10

36.61 ГБ

В этой теме нет новых непрочитанных сообщений. Убийство по заказу / The Hit List [боевик, триллер, 1993] DVDRip, Mvo

salma3

181 | 19

1.36 ГБ

В этой теме нет новых непрочитанных сообщений. Смертельная Схватка / Taking the Heat [боевик, триллер, 1993] DVDRip, Dvo [ОРТ]

salma3

2 | 0

907.29 МБ

В этой теме нет новых непрочитанных сообщений. Всего один выход / Ek Hi Raasta [Боевик, триллер, приключения, 1993] DVDRip, Avo

salma3

4 | 4

1.45 ГБ

В этой теме нет новых непрочитанных сообщений. Точка нанесения удара / Point of Impact [Боевик, триллер, драма, криминал, 1993] DVDRip, Avo

salma3

42 | 2

1.36 ГБ


Начать новую тему Ответить на тему  [ 1 сообщение ] 




Для Мосгорсуда, Роскомнадзора и рекламодателей:: mosgorsud-torrent[собачка]yandex.ru