Торрент файл
скачать торрент магнет ссылка Добавлен: 17 май 2014, 16:14
Размер: 1.45 ГБ
Сидеров: 24
Личеров: 3
Статус: (salma3)
Автор

СообщениеДобавлено: 17 май 2014, 16:14 

В сети
Супермодератор
Аватара пользователя
Дата регистрации:
15 фев 2012, 16:44
Возраст: 27
Спасибо: 5121 / 2089
Сообщения: 17292
Пожиратель душ / Devour

Год выпуска: 2005
Жанр: Ужасы
Режиссер: Дэвид Уинклер / David Winkler

В ролях: Дженсен Эклс, Шаннин Соссамон, Доминик Суэйн, Уильям Сэдлер, Тич Грант, Мартин Камминс, Роб Стюарт, Р. Нельсон Браун, Ванда Кэннон, Дженн Гриффин и др.

Описание: У Зла тысячи масок. Никогда не знаешь, под каким обличьем оно явится к тебе. В дом обычного школьника Джейка Грея оно входит со странной видеоигрой под названием «Тропа». Начиная с того дня, как герой впервые сыграл в нее, его жизнь превращается в кошмар наяву.

Джейка начинают терзать жуткие видения, а его близкие — умирать один за другим медленным, мучительным, необъяснимым образом! Пытаясь понять, что происходит, и прекратить лавину смертей, герой узнает, что автором «Тропы» является безумный сатанист Дэйл Кэйтер. А значит, чтобы остановить кровавую вакханалию, Джейку, похоже, придется сразиться с самим дьяволом!



Страна: США
Продолжительность: 01:26:56
Перевод: Профессиональный (многоголосый закадровый)

Качество видео: DVDRip-AVC
Формат видео: MKV
Видео кодек: H.264
Аудио кодек: AC3
Видео: 1024 x 576 (16:9), 23.976 fps, AVC (х264) High@L4.1, ~ 1946 Kbps, 0.132 bit/pixel
Аудио: 48.0 kHz, AC3, (Front: L C R, Side: L R, LFE) , 6 ch ~448 Kbps avg

Общее
Уникальный идентификатор : 194921285731898406590079744462199814048 (0x92A4795E8C877512ADBEEF61CA7177A0)
Полное имя : D:\Pogiratel.dush.DVDRip-AVC.H.264.1,45 Gb.RG.Films.mkv
Формат : Matroska
Версия формата : Version 2
Размер файла : 1,45 Гбайт
Продолжительность : 1 ч. 26 м.
Общий поток : 2394 Кбит/сек
Дата кодирования : UTC 2014-01-31 05:16:49
Программа кодирования : mkvmerge v5.8.0 ('No Sleep / Pillow') built on Sep 2 2012 15:37:04
Библиотека кодирования : libebml v1.2.3 + libmatroska v1.3.0

Видео
Идентификатор : 1
Формат : AVC
Формат/Информация : Advanced Video Codec
Профиль формата : High@L4.1
Параметр CABAC формата : Да
Параметр ReFrames формата : 8 кадров
Идентификатор кодека : V_MPEG4/ISO/AVC
Продолжительность : 1 ч. 26 м.
Битрейт : 1946 Кбит/сек
Ширина : 1024 пикселя
Высота : 576 пикселей
Соотношение сторон : 16:9
Режим частоты кадров : Постоянный
Частота кадров : 25,000 кадров/сек
Цветовое пространство : YUV
Субдискретизация насыщенности : 4:2:0
Битовая глубина : 8 бит
Тип развёртки : Прогрессивная
Бит/(Пиксели*Кадры) : 0.132
Размер потока : 1,15 Гбайт (79%)
Библиотека кодирования : x264 core 125 r2208 d9d2288
Настройки программы : cabac=1 / ref=8 / deblock=1:-1:-1 / analyse=0x3:0x133 / me=umh / subme=11 / psy=1 / psy_rd=1.00:0.10 / mixed_ref=1 / me_range=24 / chroma_me=1 / trellis=2 / 8x8dct=1 / cqm=0 / deadzone=21,11 / fast_pskip=0 / chroma_qp_offset=-3 / threads=12 / lookahead_threads=2 / sliced_threads=0 / nr=0 / decimate=1 / interlaced=0 / bluray_compat=0 / constrained_intra=0 / bframes=3 / b_pyramid=2 / b_adapt=2 / b_bias=0 / direct=3 / weightb=1 / open_gop=0 / weightp=2 / keyint=250 / keyint_min=25 / scenecut=40 / intra_refresh=0 / rc_lookahead=50 / rc=2pass / mbtree=1 / bitrate=1946 / ratetol=1.0 / qcomp=0.60 / qpmin=0 / qpmax=69 / qpstep=4 / cplxblur=20.0 / qblur=0.5 / ip_ratio=1.40 / aq=1:1.00
Default : Да
Forced : Нет

Аудио
Идентификатор : 2
Формат : AC-3
Формат/Информация : Audio Coding 3
Расширение режима : CM (complete main)
Параметр Endianness формата : Big
Идентификатор кодека : A_AC3
Продолжительность : 1 ч. 26 м.
Вид битрейта : Постоянный
Битрейт : 448 Кбит/сек
Каналы : 6 каналов
Расположение каналов : Front: L C R, Side: L R, LFE
Частота : 48,0 КГц
Битовая глубина : 16 бит
Метод сжатия : С потерями
Размер потока : 279 Мбайт (19%)
Default : Да
Forced : Нет

Рип: jeenart


_________________



реклама партнёра


Вернуться к началу
 Профиль Отправить личное сообщение  
 
   Похожие торренты   Автор   Торрент   Размер 
В этой теме нет новых непрочитанных сообщений. Пожиратель душ / Devour [Ужасы, 2005] DVDRip, Dvo

salma3

7 | 2

1.46 ГБ

В этой теме нет новых непрочитанных сообщений. Android Lust - Devour Rise and Take Flight [2006, Alternative, MP3]

PriZraK

0 | 2

73.17 МБ

В этой теме нет новых непрочитанных сообщений. Devour The Unborn - Consuming The Morgue Remains [2012, Slamming Brutal Death Metal), MP3]

PriZraK

0 | 1

78.62 МБ

В этой теме нет новых непрочитанных сообщений. Devour The Day - Time & Pressure [2013, Alt.Rock,Hard Rock, MP3]

PriZraK

0 | 1

81.71 МБ

В этой теме нет новых непрочитанных сообщений. The Cure - Greatest Hits 2005 [2005, New wave,post punk, MP3]

PriZraK

8 | 2

117.74 МБ

В этой теме нет новых непрочитанных сообщений. Ну что, приехали? / Are We There Yet? [Комедия, 2005] DVDRip, Mvo

salma3

201 | 13

1.37 ГБ

В этой теме нет новых непрочитанных сообщений. Свидетель на свадьбе / The best man [Комедия, мелодрама, 2005] DVDRip, Dub

salma3

67 | 8

1.37 ГБ


Начать новую тему Ответить на тему  [ 1 сообщение ] 




Для Мосгорсуда, Роскомнадзора и рекламодателей:: mosgorsud-torrent[собачка]yandex.ru