Торрент файл
скачать торрент магнет ссылка Добавлен: 15 май 2014, 00:29
Размер: 1.13 ГБ
Сидеров: 3
Личеров: 3
Статус: (salma3)
Автор

СообщениеДобавлено: 15 май 2014, 00:29 

Не в сети
Супермодератор
Аватара пользователя
Дата регистрации:
15 фев 2012, 16:44
Возраст: 27
Спасибо: 5539 / 2105
Сообщения: 21246
Лос-Анджелесские войны / Войны Лос-Анджелеса / L.A. Wars

Год выхода: 1994
Жанр: боевик
Режиссер: Тони Канда / Tony Kandah, Мартин Моррис / Martin Morris

В ролях: Винс Мурдокко, Томас Брейдер, Мэри Э. Зилба, Керри Касем, Родриго Обрегон, Стивен Кори

Описание: Бывший морской пехотинец и полицейский, работающий вышибалой в баре, нанимается телохранителем к дочери босса мафии Лос-Анджелеса, который ведет войну с новой группировкой, пытающейся захватить контроль над городом. Этой возможностью воспользовалась полиция, чтобы положить конец преступности. Но когда дочку, с которой у главного героя завязался роман, похищают, он разбирается с бандитами своими силами. Боевик в духе "Рэмбо", но намного ниже уровнем. (Иванов М.)



Выпущено: США
Продолжительность: 01:30:41
Перевод: Авторский (одноголосый закадровый) [Михаил Иванов]

Файл
Качество: VHSRip
Формат файла: AVI
Видео кодек: MPEG-4
Аудио кодек: AC3
Видео: 704x496, 23.976 fps, MPEG-4 Visual, 1577 Kbps, XviD 1.1.2
Аудио: 48 KHz, AC3, 2 ch, 192 Kbps

General
Complete name : C:\Users\Сергей\Downloads\Лос-анджелесские войны.avi
Format : AVI
Format/Info : Audio Video Interleave
File size : 1.13 GiB
Duration : 1h 30mn
Overall bit rate : 1 779 Kbps
Writing application : VirtualDubMod 1.5.10.3 (build 2550/release)
Writing library : VirtualDubMod build 2550/release
Video
ID : 0
Format : MPEG-4 Visual
Format profile : Advanced Simple@L5
Format settings, BVOP : 1
Format settings, QPel : No
Format settings, GMC : No warppoints
Format settings, Matrix : Custom
Codec ID : XVID
Codec ID/Hint : XviD
Duration : 1h 30mn
Bit rate : 1 577 Kbps
Width : 704 pixels
Height : 496 pixels
Display aspect ratio : 1.419
Frame rate : 23.976 fps
Color space : YUV
Chroma subsampling : 4:2:0
Bit depth : 8 bits
Scan type : Progressive
Compression mode : Lossy
Bits/(Pixel*Frame) : 0.188
Stream size : 1 023 MiB (89%)
Writing library : XviD 1.1.2 (UTC 2006-11-01)
Audio
ID : 1
Format : AC-3
Format/Info : Audio Coding 3
Mode extension : CM (complete main)
Format settings, Endianness : Big
Codec ID : 2000
Duration : 1h 30mn
Bit rate mode : Constant
Bit rate : 192 Kbps
Channel(s) : 2 channels
Channel positions : Front: L R
Sampling rate : 48.0 KHz
Bit depth : 16 bits
Compression mode : Lossy
Stream size : 125 MiB (11%)
Alignment : Split accross interleaves
Interleave, duration : 42 ms (1.00 video frame)
Interleave, preload duration : 500 ms
Language : English
Доп. информация:
Видеоряд с Синемагеддона.
За звуковую дорожку с переводом Михаила Иванова большое спасибо team_6strun.
За видеоряд, синхронизацию звуковой дороги и работу со звуком огромная благодарность ale_x2008.


_________________
Проголосуй за трекер Открытый торрент трекер - RUS-MEDIA.ORG

Не забудьте оставить комментарий!



реклама партнёра


Вернуться к началу
 Профиль Отправить личное сообщение  
 
   Похожие торренты   Автор   Торрент   Размер 
В этой теме нет новых непрочитанных сообщений. Перекрестные войны / Cross Wars [боевик, 2017] DVDRip, Mvo

salma3

971 | 554

1.37 ГБ

В этой теме нет новых непрочитанных сообщений. Дорожные войны / Road Wars [фантастика, боевик, 2015] HDRip, Avo

salma3

90 | 7

1.37 ГБ

В этой теме нет новых непрочитанных сообщений. Другой мир: Войны крови / Underworld: Blood Wars [Ужасы, боевик, 2016] WEB-DLRip, Mvo

salma3

678 | 160

742.97 МБ

В этой теме нет новых непрочитанных сообщений. Другой мир: Войны крови / Underworld: Blood Wars [Ужасы, боевик, 2016] WEB-DLRip, Mvo

salma3

9855 | 2791

1.46 ГБ

В этой теме нет новых непрочитанных сообщений. Другой мир: Войны крови / Underworld: Blood Wars [ужасы, боевик, 2016] WEB-DL 1080p, Mvo

salma3

208 | 89

3.29 ГБ

В этой теме нет новых непрочитанных сообщений. Другой мир: Войны крови / Underworld: Blood Wars [Ужасы, боевик, 2016] WEB-DL 1080p, Mvo

salma3

8499 | 2903

3.42 ГБ

В этой теме нет новых непрочитанных сообщений. Другой мир: Войны крови / Underworld: Blood Wars [Ужасы, боевик, 2016] WEB-DL 720p, Mvo

salma3

1719 | 446

3.11 ГБ


Начать новую тему Ответить на тему  [ 1 сообщение ] 




Для Мосгорсуда, Роскомнадзора и рекламодателей:: mosgorsud-torrent[собачка]yandex.ru