Торрент файл
скачать торрент магнет ссылка Добавлен: 09 май 2014, 10:20
Размер: 2.48 ГБ
Сидеров: 20
Личеров: 2
Статус: (salma3)
Автор

СообщениеДобавлено: 09 май 2014, 10:20 

Не в сети
Зам. Админа
Аватара пользователя
Дата регистрации:
02 дек 2010, 12:39
Спасибо: 12461 / 214
Сообщения: 27968
Год выпуска: 2013
Жанр: триллер
Режиссер: Джереми Солнье
В ролях: Макон Блэр, Девин Рэтрей, Эми Харгривз, Кевин Колак, Ив Пламб, Дэвид В. Томпсон, Стэйси Рок, Сидне Андерсон, Бонни Джонсон

О фильме:
Он всю свою жизнь жил затворником. Но настало время и ему вернулся туда, где обычно проходит самое счастливое время человека, детство. Он вернулся домой с одной мыслью - отомстить. Он должен защитить свою семью и свое право, жить так, как ему хочется. Получится ли у него отстоять свою честь?


Выпущено: США
Продолжительность: 01:30:24
Озвучивание: Любительское (одноголосое) [ХихиДок]

Формат: MKV
Качество: WEB-DL 720p [PHD]
Видео: 3352 kb/s, 1280x536
Аудио: Russian: AC3, 192 kb/s (2 ch) / English: AC3, 384 kb/s (6 ch)
Субтитры: Russian [ХиХиДок], English
Дополнительно: Сохранены оригинальные чаптеры как на Blu-Ray
Размер: 2.48 GB
Скачать: Сэмпл


Общее
Blue.Ruin.2013.WEB-DL.720p.CINEMANIA.mkv
Формат : Matroska
Версия формата : Version 4 / Version 2
Размер файла : 2,48 Гбайт
Продолжительность : 1 ч. 30 м.
Общий поток : 3919 Кбит/сек
Название фильма : Release Group CINEMANIA
Дата кодирования : UTC 2014-05-08 16:10:33
Программа кодирования : mkvmerge v6.9.1 ('Blue Panther') 64bit built on Apr 18 2014 18:23:38
Библиотека кодирования : libebml v1.3.0 + libmatroska v1.4.1

Видео
Идентификатор : 1
Формат : AVC
Формат/Информация : Advanced Video Codec
Профиль формата : High@L3.1
Параметр CABAC формата : Да
Параметр ReFrames формата : 4 кадра
Идентификатор кодека : V_MPEG4/ISO/AVC
Продолжительность : 1 ч. 30 м.
Битрейт : 3352 Кбит/сек
Ширина : 1280 пикселей
Высота : 536 пикселей
Соотношение сторон : 2,40:1
Режим частоты кадров : Постоянный
Частота кадров : 23,976 кадра/сек
Цветовое пространство : YUV
Субдискретизация насыщенности : 4:2:0
Битовая глубина : 8 бит
Тип развёртки : Прогрессивная
Бит/(Пиксели*Кадры) : 0.204
Размер потока : 2,07 Гбайт (83%)
Заголовок : Release Group CINEMANIA
Библиотека кодирования : x264 core 142 r2409 d6b4e63
Настройки программы : cabac=1 / ref=3 / deblock=1:2:2 / analyse=0x3:0x113 / me=hex / subme=7 / psy=1 / psy_rd=1.00:0.15 / mixed_ref=1 / me_range=16 / chroma_me=1 / trellis=1 / 8x8dct=1 / cqm=0 / deadzone=21,11 / fast_pskip=1 / chroma_qp_offset=-3 / threads=6 / lookahead_threads=1 / sliced_threads=0 / nr=0 / decimate=1 / interlaced=0 / bluray_compat=0 / constrained_intra=0 / bframes=3 / b_pyramid=2 / b_adapt=1 / b_bias=0 / direct=1 / weightb=1 / open_gop=0 / weightp=2 / keyint=240 / keyint_min=23 / scenecut=40 / intra_refresh=0 / rc_lookahead=40 / rc=2pass / mbtree=1 / bitrate=3352 / ratetol=1.0 / qcomp=0.60 / qpmin=0 / qpmax=69 / qpstep=4 / cplxblur=20.0 / qblur=0.5 / ip_ratio=1.40 / aq=1:1.00
Язык : English
Default : Да
Forced : Нет

Аудио #1
Идентификатор : 2
Формат : AC-3
Формат/Информация : Audio Coding 3
Расширение режима : CM (complete main)
Параметр Endianness формата : Big
Идентификатор кодека : A_AC3
Продолжительность : 1 ч. 30 м.
Вид битрейта : Постоянный
Битрейт : 192 Кбит/сек
Каналы : 2 канала
Расположение каналов : Front: L R
Частота : 44,1 КГц
Битовая глубина : 16 бит
Метод сжатия : С потерями
Размер потока : 125 Мбайт (5%)
Заголовок : ХиХидок
Язык : Russian
Default : Да
Forced : Да

Аудио #2
Идентификатор : 3
Формат : AC-3
Формат/Информация : Audio Coding 3
Расширение режима : CM (complete main)
Параметр Endianness формата : Big
Идентификатор кодека : A_AC3
Продолжительность : 1 ч. 30 м.
Вид битрейта : Постоянный
Битрейт : 384 Кбит/сек
Каналы : 6 каналов
Расположение каналов : Front: L C R, Side: L R, LFE
Частота : 48,0 КГц
Битовая глубина : 16 бит
Метод сжатия : С потерями
Размер потока : 249 Мбайт (10%)
Язык : English
Default : Нет
Forced : Нет

Текст #1
Идентификатор : 4
Формат : UTF-8
Идентификатор кодека : S_TEXT/UTF8
Идентификатор кодека/Информация : UTF-8 Plain Text
Заголовок : ХиХиДок
Язык : Russian
Default : Нет
Forced : Нет

Текст #2
Идентификатор : 5
Формат : UTF-8
Идентификатор кодека : S_TEXT/UTF8
Идентификатор кодека/Информация : UTF-8 Plain Text
Язык : English
Default : Нет
Forced : Нет

Меню
00:00:00.000 : en:00:00:00.000
00:05:43.000 : en:00:05:43.000
00:13:49.000 : en:00:13:49.000
00:16:25.000 : en:00:16:25.000
00:23:21.000 : en:00:23:21.000
00:31:07.000 : en:00:31:07.000
00:35:55.000 : en:00:35:55.000
00:41:37.000 : en:00:41:37.000
00:48:11.000 : en:00:48:11.000
00:51:15.000 : en:00:51:15.000
01:00:57.000 : en:01:00:57.000
01:05:41.000 : en:01:05:41.000
01:09:23.000 : en:01:09:23.000
01:17:37.000 : en:01:17:37.000
01:23:19.000 : en:01:23:19.000
01:26:08.000 : en:01:26:08.000




реклама партнёра


Вернуться к началу
 Профиль  
 
   Похожие торренты   Автор   Торрент   Размер 
В этой теме нет новых непрочитанных сообщений. Катастрофа / Blue Ruin (Джереми Солнье) [2013, триллер, драма, криминал, BDRip 720p] mvo+avo

Dracon

174 | 22

3.74 ГБ

В этой теме нет новых непрочитанных сообщений. Катастрофа / Blue Ruin [триллер, 2013] HDRip, Avo

salma3

60 | 5

1.37 ГБ

В этой теме нет новых непрочитанных сообщений. Катастрофа / Blue Ruin [триллер, 2013] HDRip, Mvo [НТВ+]

Dracon

2 | 2

1.37 ГБ

В этой теме нет новых непрочитанных сообщений. Катастрофа / Blue Ruin [триллер, 2013] BDRip 1080p, Mvo+Sub [НТВ+]

Dracon

1 | 2

7.74 ГБ

В этой теме нет новых непрочитанных сообщений. Катастрофа на День независимости / Independence Daysaster [фантастика, боевик, 2013] HDRip 720p, Mvo

salma3

153 | 11

2.92 ГБ

В этой теме нет новых непрочитанных сообщений. Sasha Foxxx / Ruin Him (2015) HD 720p

Dile-1

2 | 1

554.6 МБ

В этой теме нет новых непрочитанных сообщений. Distress of Ruin - Predators Among Us (EP) [Март 2013,Melodic Death Metal,MP3]

PriZraK

0 | 1

66.86 МБ


Начать новую тему Ответить на тему  [ 1 сообщение ] 




Для Мосгорсуда, Роскомнадзора и рекламодателей:: mosgorsud-torrent[собачка]yandex.ru