Торрент файл
скачать торрент магнет ссылка Добавлен: 07 май 2014, 09:35
Размер: 2.47 ГБ
Сидеров: 30
Личеров: 2
Статус: (salma3)
Автор

СообщениеДобавлено: 07 май 2014, 09:35 

Не в сети
Зам. Админа
Аватара пользователя
Дата регистрации:
02 дек 2010, 12:39
Спасибо: 12458 / 214
Сообщения: 27968
Год выхода: 2013
Жанр: драма
Режиссер: Лора Дерн, Брайс Даллас Ховард, Бонни Хант
В ролях: Бриттани Сноу, Дженнифер Хадсон, Сара Хайланд, Мелисса Лео, Митч Раус, Октавия Спенсер, София Васильева, Эрни Хадсон, Джейсон Риттер, Джин Смарт

О фильме:
Сюжет фильма рассказывает истории пятерых разных людей, которые не разу не пересекались в своей жизни. Все они отличаются друг от друга, но есть нечто, что объединяет их — нарушенное психическое состояние, постепенно перерастающее в болезнь. Каждая из рассказанных историй называется именем главного героя: Эдди, Люси, Элисон, Грэйс и Мэгги. Мы узнаем о том, как живут эти люди, как они борются со своим недугом, с какими проблемами они сталкиваются и как их решают. Каждый из них смотрит на мир своими глазами, каждый воспринимает свою болезнь по-своему. У каждого из героев также есть и близкие люди, которые тоже по-разному относятся к их заболеваю. Всем им не просто в этом мире, и все они надеются на лучшее...


Выпущено: США
Продолжительность: 01:28:25
Озвучивание: Профессиональное (многоголосое) [Itunes Russia]

Формат: MKV
Качество: WEB-DL 720p [RARBG]
Видео: 3345 kb/s, 1280x720
Аудио: Russian: AC3, 192 kb/s (2 ch) / English: AC3, 384 kb/s (6 ch)
Дополнительно: Сохранены оригинальные чаптеры как на Blu-Ray
Размер: 2.47 GB
Скачать: Сэмпл


Общее
Call.Me.Crazy.2013.WEB-DL.720p.CINEMANIA.mkv
Формат : Matroska
Версия формата : Version 4 / Version 2
Размер файла : 2,47 Гбайт
Продолжительность : 1 ч. 28 м.
Общий поток : 4000 Кбит/сек
Название фильма : Release Group CINEMANIA
Дата кодирования : UTC 2014-05-06 23:02:07
Программа кодирования : mkvmerge v6.9.1 ('Blue Panther') 64bit built on Apr 18 2014 18:23:38
Библиотека кодирования : libebml v1.3.0 + libmatroska v1.4.1

Видео
Идентификатор : 1
Формат : AVC
Формат/Информация : Advanced Video Codec
Профиль формата : High@L4.0
Параметр CABAC формата : Да
Параметр ReFrames формата : 4 кадра
Идентификатор кодека : V_MPEG4/ISO/AVC
Продолжительность : 1 ч. 28 м.
Битрейт : 3345 Кбит/сек
Ширина : 1280 пикселей
Высота : 720 пикселей
Соотношение сторон : 16:9
Режим частоты кадров : Постоянный
Частота кадров : 23,976 кадра/сек
Цветовое пространство : YUV
Субдискретизация насыщенности : 4:2:0
Битовая глубина : 8 бит
Тип развёртки : Прогрессивная
Метод сжатия : С потерями
Бит/(Пиксели*Кадры) : 0.151
Размер потока : 2,07 Гбайт (84%)
Заголовок : Release Group CINEMANIA
Default : Да
Forced : Нет

Аудио #1
Идентификатор : 2
Формат : AC-3
Формат/Информация : Audio Coding 3
Расширение режима : CM (complete main)
Параметр Endianness формата : Big
Идентификатор кодека : A_AC3
Продолжительность : 1 ч. 28 м.
Вид битрейта : Постоянный
Битрейт : 192 Кбит/сек
Каналы : 2 канала
Расположение каналов : Front: L R
Частота : 48,0 КГц
Битовая глубина : 16 бит
Метод сжатия : С потерями
Размер потока : 121 Мбайт (5%)
Заголовок : Itunes
Язык : Russian
Default : Да
Forced : Да

Аудио #2
Идентификатор : 3
Формат : AC-3
Формат/Информация : Audio Coding 3
Расширение режима : CM (complete main)
Параметр Endianness формата : Big
Идентификатор кодека : A_AC3
Продолжительность : 1 ч. 28 м.
Вид битрейта : Постоянный
Битрейт : 384 Кбит/сек
Каналы : 6 каналов
Расположение каналов : Front: L C R, Side: L R, LFE
Частота : 48,0 КГц
Битовая глубина : 16 бит
Метод сжатия : С потерями
Размер потока : 243 Мбайт (10%)
Язык : English
Default : Нет
Forced : Нет

Меню
00:00:00.000 : en:1
00:04:58.000 : en:2
00:08:44.000 : en:3
00:13:40.000 : en:4
00:18:12.000 : en:5
00:21:33.000 : en:6
00:28:04.000 : en:7
00:36:44.000 : en:8
00:42:48.000 : en:9
00:50:13.000 : en:10
00:56:00.000 : en:11
01:01:42.000 : en:12
01:06:53.000 : en:13
01:09:55.000 : en:14
01:16:13.000 : en:15
01:24:48.000 : en:16




реклама партнёра


Вернуться к началу
 Профиль  
 
   Похожие торренты   Автор   Торрент   Размер 
В этой теме нет новых непрочитанных сообщений. Зови меня сумасшедшим / Call Me Crazy: A Five Film [драма, 2013] WEB-DL 1080p, Mvo [iTunes]

Dracon

21 | 4

3.27 ГБ

В этой теме нет новых непрочитанных сообщений. Зови меня сумасшедшим / Call Me Crazy: A Five Film (Лора Дерн, Брайс Даллас Ховард, Бонни Хант / Laura Dern, Bryce Dallas Howard, Bonnie Hunt) [2013г., драма, HDTVRip] MVO

Alfredovich

163 | 8

1.37 ГБ

В этой теме нет новых непрочитанных сообщений. [RealSlutParty.com / Mofos.com] Nicki Blue, Ryan Grey, Tiffany Kohl (Bartenders Film Crazy Sex Tape) [2014 г., All Sex, Hardcore, Reverse Cowgirl, Ass Worship, Work Fantasies, Orgy, Missionary, WEB-DL, 272р]

killerslava

4 | 3

242.11 МБ

В этой теме нет новых непрочитанных сообщений. Небраска / Nebraska [драма, 2013] BDRip 720p, Mvo+Sub [iTunes]

Dracon

74 | 4

8.57 ГБ

В этой теме нет новых непрочитанных сообщений. Филомена / Philomena [драма, комедия, 2013] BDRip 720p, Dub [iTunes]

Dracon

53 | 6

4.85 ГБ

В этой теме нет новых непрочитанных сообщений. Жасмин / Blue Jasmine [Комедия, драма, 2013] WEB-DL 720p, Dub [iTunes]

Dracon

1221 | 136

2.94 ГБ

В этой теме нет новых непрочитанных сообщений. Starперцы / Last Vegas [Комедия, драма, 2013] BDRip 720p, dub [iTunes]

Dracon

199 | 4

6.39 ГБ


Начать новую тему Ответить на тему  [ 1 сообщение ] 




Для Мосгорсуда, Роскомнадзора и рекламодателей:: mosgorsud-torrent[собачка]yandex.ru