Торрент файл
скачать торрент магнет ссылка Добавлен: 05 май 2014, 23:17
Размер: 1.13 ГБ
Сидеров: 284
Личеров: 14
Статус: (salma3)
Автор

СообщениеДобавлено: 05 май 2014, 23:17 

Не в сети
Супермодератор
Аватара пользователя
Дата регистрации:
15 фев 2012, 16:44
Возраст: 28
Спасибо: 6577 / 2143
Сообщения: 43865
Год выпуска: 2014
Жанр: ужасы
Режиссер: Пой Арнон, Ачира Ноктхет
В ролях: Пичанок Льювизетпайбун, Питчайя Нитипайсанкул, Пхаранью Роджанавутхихам, Падунг Сонгсанг, Чарли Трайраттана

О фильме:
4 жуткие истории о мстительных духах людей, погибших трагической и жестокой смертью.



Выпущено: Таиланд
Продолжительность: 01:47:27
Озвучивание: Любительское (двухголосое) [DeadSno & den904]
перевод на русский язык [МЕГАПЫХАРЬ & ОХ! Студия]
работа со звуком Гуннлауг]

Файл
Формат: MKV
Качество: DVDRip x264 [SmY]
Видео: 860 kb/s, 720x304
Аудио: Russian / Thai: AC3, 384 kb/s (6 ch)
Размер: 1.13 GB
Скачать: Сэмпл

Релиз группы:

Общее
Still.2.2014.DVDRip.CINEMANIA.mkv
Формат : Matroska
Версия формата : Version 4 / Version 2
Размер файла : 1,13 Гбайт
Продолжительность : 1 ч. 47 м.
Общий поток : 1505 Кбит/сек
Название фильма : Release Group CINEMANIA
Дата кодирования : UTC 2014-05-05 18:13:00
Программа кодирования : mkvmerge v6.9.1 ('Blue Panther') 64bit built on Apr 18 2014 18:23:38
Библиотека кодирования : libebml v1.3.0 + libmatroska v1.4.1

Видео
Идентификатор : 1
Формат : AVC
Формат/Информация : Advanced Video Codec
Профиль формата : High@L3.0
Параметр CABAC формата : Да
Параметр ReFrames формата : 5 кадров
Идентификатор кодека : V_MPEG4/ISO/AVC
Продолжительность : 1 ч. 47 м.
Битрейт : 860 Кбит/сек
Ширина : 720 пикселей
Высота : 304 пикселя
Соотношение сторон : 2,35:1
Режим частоты кадров : Постоянный
Частота кадров : 23,976 кадра/сек
Цветовое пространство : YUV
Субдискретизация насыщенности : 4:2:0
Битовая глубина : 8 бит
Тип развёртки : Прогрессивная
Бит/(Пиксели*Кадры) : 0.135
Размер потока : 543 Мбайт (47%)
Заголовок : Release Group CINEMANIA
Библиотека кодирования : x264 core 142 r2409 d6b4e63
Настройки программы : cabac=1 / ref=5 / deblock=1:0:0 / analyse=0x3:0x133 / me=umh / subme=9 / psy=1 / psy_rd=1.00:0.00 / mixed_ref=1 / me_range=24 / chroma_me=1 / trellis=1 / 8x8dct=1 / cqm=0 / deadzone=21,11 / fast_pskip=1 / chroma_qp_offset=-2 / threads=12 / lookahead_threads=1 / sliced_threads=0 / nr=0 / decimate=1 / interlaced=0 / bluray_compat=0 / constrained_intra=0 / bframes=5 / b_pyramid=2 / b_adapt=2 / b_bias=0 / direct=1 / weightb=1 / open_gop=0 / weightp=2 / keyint=240 / keyint_min=23 / scenecut=40 / intra_refresh=0 / rc_lookahead=40 / rc=crf / mbtree=1 / crf=16.0 / qcomp=0.60 / qpmin=0 / qpmax=69 / qpstep=4 / ip_ratio=1.40 / aq=1:1.00
Default : Да
Forced : Нет
Основные цвета : BT.601 PAL
Характеристики трансфера : BT.470 System B, BT.470 System G
Коэффициенты матрицы : BT.601

Аудио #1
Идентификатор : 2
Формат : AC-3
Формат/Информация : Audio Coding 3
Расширение режима : CM (complete main)
Параметр Endianness формата : Big
Идентификатор кодека : A_AC3
Продолжительность : 1 ч. 47 м.
Вид битрейта : Постоянный
Битрейт : 384 Кбит/сек
Каналы : 6 каналов
Расположение каналов : Front: L C R, Side: L R, LFE
Частота : 48,0 КГц
Битовая глубина : 16 бит
Метод сжатия : С потерями
Размер потока : 295 Мбайт (26%)
Заголовок : Влад и Снежинка
Язык : Russian
Default : Да
Forced : Да

Аудио #2
Идентификатор : 3
Формат : AC-3
Формат/Информация : Audio Coding 3
Расширение режима : CM (complete main)
Параметр Endianness формата : Big
Идентификатор кодека : A_AC3
Продолжительность : 1 ч. 47 м.
Вид битрейта : Постоянный
Битрейт : 384 Кбит/сек
Каналы : 6 каналов
Расположение каналов : Front: L C R, Side: L R, LFE
Частота : 48,0 КГц
Битовая глубина : 16 бит
Метод сжатия : С потерями
Размер потока : 295 Мбайт (26%)
Язык : Thai
Default : Нет
Forced : Нет

Текст
Идентификатор : 4
Формат : UTF-8
Идентификатор кодека : S_TEXT/UTF8
Идентификатор кодека/Информация : UTF-8 Plain Text
Язык : English
Default : Нет
Forced : Нет


_________________
Проголосуй за трекер Открытый торрент трекер - RUS-MEDIA.ORG

Проголосуй Открытый торрент трекер - RUS-MEDIA.ORG



реклама партнёра


Вернуться к началу
 Профиль Отправить личное сообщение  
 
   Похожие торренты   Автор   Торрент   Размер 
В этой теме нет новых непрочитанных сообщений. Отмеченный смертью / Помеченный смертью / Нико-3 / Marked for Death [боевик, триллер, драма, 1990] BDRip 720p, Dub

salma3

17 | 4

6.9 ГБ

В этой теме нет новых непрочитанных сообщений. Техники / Criminal Designer (Hong-seon Kim) [боевик, криминал, приключения, 2014] WEB-DL 720p, mvo

Dracon

131 | 15

3.32 ГБ

В этой теме нет новых непрочитанных сообщений. Техники / Criminal Designer (Hong-seon Kim) [боевик, криминал, приключения, 2014] WEB-DLRip, mvo

Dracon

757 | 14

1.47 ГБ

В этой теме нет новых непрочитанных сообщений. Техники / Criminal Designer (Hong-seon Kim) [боевик, криминал, приключения, 2014] HDTVRip, Mvo

Dracon

3 | 0

1.46 ГБ

В этой теме нет новых непрочитанных сообщений. Торговец смертью / Merchant of Death [Боевик, драма, 1997] DVDRip, Dvo

salma3

20 | 3

1.46 ГБ

В этой теме нет новых непрочитанных сообщений. Рандеву со смертью / Rendezvous with Death [Боевые искусства, 1980] DVDRip, Avo

salma3

18 | 6

1.46 ГБ

В этой теме нет новых непрочитанных сообщений. Рандеву со смертью / Rendezvous with Death [Боевые искусства, 1980] DVDRip, Avo

salma3

29 | 6

743.35 МБ


Начать новую тему Ответить на тему  [ 1 сообщение ] 




Для Мосгорсуда, Роскомнадзора и рекламодателей:: mosgorsud-torrent[собачка]yandex.ru